VERSION	0.00.00	1.03.00
FES_MODE	0
BPM_DEF	220.000	220.000	220.000	220.000
MET_DEF	4	4
RESOLUTION	384
CLK_DEF	384
COMPATIBLE_CODE	MA2

BPM	0	0	220.000
MET	0	0	4	4

TAP	10	0	0
TAP	10	96	0
TAP	12	0	7
TAP	12	96	7
HLD	14	0	0	384
HLD	14	0	1	384
HLD	16	0	6	384
HLD	16	0	7	384
TAP	18	0	0
TAP	18	96	0
TAP	18	192	0
TAP	19	0	1
TAP	19	96	1
TAP	19	192	1
TAP	20	0	2
TAP	20	96	2
TAP	20	192	2
TAP	21	0	2
TAP	21	0	3
TAP	21	96	2
TAP	21	96	3
TAP	21	192	2
TAP	21	192	3
TAP	22	0	4
TAP	22	96	4
TAP	22	192	4
TAP	23	0	5
TAP	23	96	5
TAP	23	192	5
TAP	24	0	6
TAP	24	96	6
TAP	24	192	6
TAP	25	0	6
TAP	25	0	7
TAP	25	96	6
TAP	25	96	7
TAP	25	192	6
TAP	25	192	7
TAP	26	0	0
TAP	26	96	0
TAP	26	192	0
TAP	27	0	7
TAP	27	96	7
TAP	27	192	7
TAP	28	0	6
TAP	28	96	6
TAP	28	192	6
TAP	29	0	6
TAP	29	0	7
TAP	29	96	6
TAP	29	96	7
TAP	29	192	6
TAP	29	192	7
HLD	30	0	0	384
HLD	30	0	1	384
HLD	32	0	6	384
HLD	32	0	7	384
STR	34	0	0
SI_	34	0	0	96	672	4
STR	38	0	7
SI_	38	0	7	96	672	3
TAP	42	0	0
TAP	42	96	0
TAP	42	192	0
TAP	43	0	7
TAP	43	96	7
TAP	43	192	0
TAP	43	192	7
TAP	44	0	6
TAP	44	96	6
TAP	44	192	6
TAP	45	0	5
TAP	45	96	5
TAP	45	192	4
TAP	45	192	5
TAP	46	0	4
TAP	46	96	4
TAP	46	192	4
TAP	47	0	3
TAP	47	96	3
TAP	47	192	3
TAP	47	192	4
TAP	48	0	2
TAP	48	96	2
TAP	48	192	2
TAP	49	0	1
TAP	49	96	1
TAP	49	192	0
TAP	49	192	1
TAP	50	0	7
TAP	50	96	7
TAP	50	192	7
TAP	51	0	0
TAP	51	0	1
TAP	51	96	0
TAP	51	96	1
TAP	51	192	0
TAP	51	192	1
TAP	52	0	2
TAP	52	96	2
TAP	52	192	2
TAP	53	0	3
TAP	53	0	4
TAP	53	96	3
TAP	53	96	4
TAP	53	192	3
TAP	53	192	4
TAP	54	0	5
TAP	54	96	5
TAP	54	192	5
TAP	55	0	6
TAP	55	0	7
TAP	55	96	6
TAP	55	96	7
TAP	55	192	6
TAP	55	192	7
TAP	56	0	7
TAP	56	96	7
TAP	56	192	7
TAP	57	0	0
TAP	57	0	1
TAP	57	96	0
TAP	57	96	1
TAP	57	192	0
TAP	57	192	1
TAP	58	0	2
TAP	58	96	2
TAP	58	192	2
TAP	59	0	3
TAP	59	0	4
TAP	59	96	3
TAP	59	96	4
TAP	59	192	3
TAP	59	192	4
TAP	60	0	4
TAP	60	96	4
TAP	60	192	4
TAP	61	0	4
TAP	61	0	5
TAP	61	96	4
TAP	61	96	5
TAP	61	192	4
TAP	61	192	5
HLD	62	0	6	384
HLD	62	0	7	384
HLD	64	0	0	384
HLD	64	0	1	384
STR	70	0	6
SI_	70	0	6	96	672	1
STR	74	0	2
SI_	74	0	2	96	672	5
STR	78	0	6
SI_	78	0	6	96	672	3
STR	82	0	2
SI_	82	0	2	96	672	7
BRK	86	0	6
TAP	86	96	6
TAP	86	192	5
TAP	86	288	5
TAP	87	0	3
TAP	87	0	4
TAP	87	96	3
TAP	87	96	4
TAP	87	192	3
TAP	87	192	4
TAP	88	0	3
TAP	88	96	3
TAP	88	192	2
TAP	88	288	2
TAP	89	0	0
TAP	89	0	1
TAP	89	96	0
TAP	89	96	1
TAP	89	192	0
TAP	89	192	1
TAP	90	0	0
TAP	90	96	0
TAP	90	192	1
TAP	90	288	1
TAP	91	0	2
TAP	91	0	3
TAP	91	96	2
TAP	91	96	3
TAP	91	192	2
TAP	91	192	3
TAP	92	0	4
TAP	92	96	4
TAP	92	192	5
TAP	92	288	5
TAP	93	0	6
TAP	93	0	7
TAP	93	96	6
TAP	93	96	7
TAP	93	192	6
TAP	93	192	7
BRK	94	0	7
TAP	94	96	7
TAP	94	192	6
TAP	94	288	6
TAP	95	0	4
TAP	95	0	5
TAP	95	96	4
TAP	95	96	5
TAP	95	192	4
TAP	95	192	5
TAP	96	0	3
TAP	96	96	3
TAP	96	192	2
TAP	96	288	2
TAP	97	0	0
TAP	97	0	1
TAP	97	96	0
TAP	97	96	1
TAP	97	192	0
TAP	97	192	1
TAP	98	0	0
TAP	98	96	0
TAP	98	192	1
TAP	98	288	1
TAP	99	0	2
TAP	99	96	2
TAP	99	192	3
TAP	99	288	3
TAP	100	0	4
TAP	100	96	4
TAP	100	192	5
TAP	100	288	5
TAP	101	0	6
TAP	101	96	6
TAP	101	192	0
TAP	101	192	7
TAP	102	0	0
TAP	102	96	0
TAP	102	192	0
TAP	103	0	0
TAP	103	0	1
TAP	103	96	0
TAP	103	96	1
TAP	103	192	0
TAP	103	192	1
TAP	104	0	7
TAP	104	96	7
TAP	104	192	7
TAP	105	0	6
TAP	105	0	7
TAP	105	96	6
TAP	105	96	7
TAP	105	192	6
TAP	105	192	7
HLD	106	0	0	384
HLD	106	0	1	384
HLD	108	0	6	384
HLD	108	0	7	384
STR	110	0	0
SI_	110	0	0	96	672	3
STR	110	0	7
SI_	110	0	7	96	672	4
TAP	116	0	0
TAP	116	0	1
TAP	116	96	0
TAP	116	96	1
TAP	116	192	0
TAP	116	192	1
TAP	117	0	6
TAP	117	0	7
TAP	117	96	6
TAP	117	96	7
TAP	117	192	6
TAP	117	192	7
TAP	118	0	0
TAP	118	0	7

T_REC_TAP	237
T_REC_BRK	2
T_REC_XTP	0
T_REC_HLD	16
T_REC_XHO	0
T_REC_STR	8
T_REC_BST	0
T_REC_XST	0
T_REC_TTP	0
T_REC_THO	0
T_REC_SLD	8
T_REC_ALL	271
T_NUM_TAP	245
T_NUM_BRK	2
T_NUM_HLD	16
T_NUM_SLD	8
T_NUM_ALL	271
T_JUDGE_TAP	247
T_JUDGE_HLD	128
T_JUDGE_SLD	8
T_JUDGE_ALL	383
TTM_EACHPAIRS	72
TTM_SCR_TAP	122500
TTM_SCR_BRK	5200
TTM_SCR_HLD	16000
TTM_SCR_SLD	12000
TTM_SCR_ALL	155700
TTM_SCR_S	150850
TTM_SCR_SS	155500
TTM_RAT_ACV	10012

