VERSION	0.00.00	1.03.00
FES_MODE	0
BPM_DEF	184.000	184.000	184.000	184.000
MET_DEF	4	4
RESOLUTION	384
CLK_DEF	384
COMPATIBLE_CODE	MA2

BPM	0	0	184.000
MET	0	0	4	4

TAP	1	0	4
TAP	1	48	3
HLD	1	96	2	96
TAP	1	144	4
STR	1	192	3
SCR	1	192	3	96	48	5
TAP	1	288	2
TAP	2	0	4
TAP	2	48	3
HLD	2	96	2	96
TAP	2	144	4
STR	2	192	3
SCR	2	192	3	96	48	5
TAP	2	288	2
TAP	3	0	4
TAP	3	48	3
HLD	3	96	2	96
TAP	3	144	4
STR	3	192	3
SCR	3	192	3	96	48	5
TAP	3	288	2
TAP	4	0	4
TAP	4	48	3
HLD	4	96	2	96
TAP	4	144	4
TAP	4	192	3
TAP	4	240	2
TAP	4	288	1
TAP	4	336	2
TAP	5	0	3
TAP	5	48	4
HLD	5	96	5	96
TAP	5	144	3
STR	5	192	4
SCL	5	192	4	96	48	2
TAP	5	288	5
TAP	6	0	3
TAP	6	48	4
HLD	6	96	5	96
TAP	6	144	3
STR	6	192	4
SCL	6	192	4	96	48	2
TAP	6	288	5
TAP	7	0	3
TAP	7	48	4
HLD	7	96	5	96
TAP	7	144	3
STR	7	192	4
SCL	7	192	4	96	48	2
TAP	7	288	5
TAP	8	0	3
TAP	8	48	4
TAP	8	96	5
TAP	8	144	3
TAP	8	144	5
TAP	8	240	4
TAP	8	288	4
TAP	8	336	4
BRK	9	0	1
BRK	9	0	3
STR	9	96	7
SI_	9	96	7	96	48	3
TAP	9	144	7
STR	9	192	1
SI_	9	192	1	96	48	4
STR	9	288	7
SI_	9	288	7	96	48	3
TAP	9	336	7
STR	10	0	1
SI_	10	0	1	96	48	4
STR	10	96	7
SSR	10	96	7	96	96	3
TAP	11	0	0
STR	11	0	3
SI_	11	0	3	96	48	5
TAP	11	96	1
TAP	11	192	0
STR	11	192	3
SI_	11	192	3	96	48	5
TAP	11	240	0
TAP	11	288	1
TAP	12	0	0
STR	12	0	3
SI_	12	0	3	96	48	5
TAP	12	96	2
TAP	12	192	0
STR	12	192	3
SI_	12	192	3	96	48	5
TAP	12	240	0
TAP	12	288	2
TAP	13	0	4
TAP	13	0	6
STR	13	96	0
SI_	13	96	0	96	48	4
TAP	13	144	0
STR	13	192	6
SI_	13	192	6	96	48	3
STR	13	288	0
SI_	13	288	0	96	48	4
TAP	13	336	0
STR	14	0	6
SI_	14	0	6	96	48	3
STR	14	96	0
SI_	14	96	0	96	48	4
TAP	14	192	6
TAP	14	240	7
TAP	14	288	0
TAP	14	336	1
STR	15	0	2
SI_	15	0	2	96	48	7
TAP	15	0	6
TAP	15	96	4
TAP	15	144	4
STR	15	192	2
SI_	15	192	2	96	48	7
TAP	15	192	6
TAP	15	288	4
TAP	15	336	4
TAP	16	0	2
TAP	16	0	6
TAP	16	48	1
TAP	16	96	0
TAP	16	144	7
TAP	16	192	3
TAP	16	240	3
TAP	16	288	4
TAP	16	336	4
HLD	17	0	3	288
TAP	17	96	4
TAP	17	192	5
TAP	17	288	6
STR	18	0	7
SI_	18	0	7	96	48	3
STR	18	192	0
SI_	18	192	0	96	48	2
STR	18	192	6
SI_	18	192	6	96	48	4
HLD	19	0	4	288
TAP	19	96	3
TAP	19	192	2
TAP	19	288	1
STR	20	0	1
SI_	20	0	1	96	48	6
STR	20	0	2
SI_	20	0	2	96	48	5
STR	20	192	4
SI_	20	192	4	96	48	0
HLD	21	0	3	672
STR	21	0	7
SUL	21	0	7	96	192	5
STR	22	0	4
SUL	22	0	4	96	192	2
STR	23	0	1
SUL	23	0	1	96	192	7
HLD	23	0	4	672
STR	24	0	5
SUL	24	0	5	96	192	3
HLD	25	0	5	288
TAP	25	96	3
TAP	25	192	2
TAP	25	288	1
STR	26	0	0
SI_	26	0	0	96	48	3
HLD	26	0	6	96
HLD	26	192	1	96
STR	26	192	4
SI_	26	192	4	96	48	7
HLD	27	0	2	288
TAP	27	96	4
TAP	27	192	5
TAP	27	288	6
TAP	28	0	3
TAP	28	0	7
TAP	28	96	1
TAP	28	96	5
STR	28	192	0
SI_	28	192	0	96	48	3
STR	28	192	4
SI_	28	192	4	96	48	7
HLD	29	0	0	672
STR	29	0	2
SXR	29	0	2	96	192	5
STR	30	0	7
SXR	30	0	7	96	192	2
HLD	31	0	3	384
STR	31	0	5
SXR	31	0	5	96	192	0
STR	32	0	0
SCR	32	0	0	96	96	4
STR	32	96	4
SCR	32	96	4	96	192	4
BRK	33	0	0
TAP	33	96	3
TAP	33	96	4
TAP	33	144	5
TAP	33	192	6
STR	33	192	7
SI_	33	192	7	96	48	2
TAP	34	0	0
TAP	34	48	7
TAP	34	96	6
TAP	34	144	5
TAP	34	192	3
STR	34	192	4
SI_	34	192	4	96	48	7
TAP	35	0	0
TAP	35	0	2
TAP	35	48	3
TAP	35	96	4
TAP	35	144	5
TAP	35	144	7
TAP	35	192	4
TAP	35	240	3
HLD	35	288	0	96
TAP	35	288	2
TAP	36	0	1
TAP	36	48	0
TAP	36	96	3
TAP	36	96	7
TAP	36	144	2
TAP	36	144	6
STR	36	192	1
SI_	36	192	1	96	48	6
HLD	36	192	5	96
TAP	37	0	4
STR	37	0	7
SI_	37	0	7	96	48	3
TAP	37	96	5
TAP	37	144	6
STR	37	192	2
SI_	37	192	2	96	48	0
STR	37	192	7
SI_	37	192	7	96	48	3
TAP	38	0	4
STR	38	0	7
SI_	38	0	7	96	48	3
TAP	38	96	5
TAP	38	144	6
STR	38	192	2
SI_	38	192	2	96	48	0
STR	38	192	7
SI_	38	192	7	96	48	3
TAP	39	0	4
STR	39	0	7
SI_	39	0	7	96	48	3
TAP	39	96	5
TAP	39	144	6
STR	39	192	2
SI_	39	192	2	96	48	0
STR	39	192	7
SI_	39	192	7	96	48	3
TAP	40	0	4
STR	40	0	7
SI_	40	0	7	96	48	3
TAP	40	96	5
TAP	40	144	6
TAP	40	192	7
TAP	40	240	0
BRK	40	288	1
BRK	40	288	6
TAP	41	0	0
TAP	41	0	7
TAP	41	96	1
STR	41	144	0
SI_	41	144	0	96	48	3
STR	41	192	7
SI_	41	192	7	96	48	4
TAP	42	0	3
TAP	42	48	4
STR	42	96	2
SCR	42	96	2	96	48	5
STR	42	96	5
SI_	42	96	5	96	48	2
TAP	42	288	0
TAP	42	288	7
TAP	43	0	5
TAP	43	0	7
TAP	43	48	4
TAP	43	96	3
TAP	43	144	0
TAP	43	144	2
TAP	43	192	3
TAP	43	240	4
TAP	43	288	5
HLD	43	288	7	96
STR	44	0	6
SI_	44	0	6	96	48	4
TAP	44	48	6
STR	44	96	2
SI_	44	96	2	96	48	0
TAP	44	144	2
STR	44	192	7
SI_	44	192	7	96	48	3
TAP	44	240	7
TAP	45	0	0
STR	45	0	3
SI_	45	0	3	96	48	7
TAP	45	96	1
TAP	45	144	2
STR	45	192	3
SI_	45	192	3	96	48	7
STR	45	192	6
SI_	45	192	6	96	48	4
TAP	46	0	0
STR	46	0	3
SI_	46	0	3	96	48	7
TAP	46	96	1
TAP	46	144	2
STR	46	192	3
SI_	46	192	3	96	48	7
STR	46	192	6
SI_	46	192	6	96	48	4
TAP	47	0	0
STR	47	0	3
SI_	47	0	3	96	48	7
TAP	47	96	1
TAP	47	144	2
STR	47	192	3
SI_	47	192	3	96	48	7
STR	47	192	6
SI_	47	192	6	96	48	4
HLD	48	0	0	96
STR	48	0	3
SI_	48	0	3	96	48	7
HLD	48	192	2	96
HLD	48	192	5	96
BRK	49	0	0
BRK	49	0	6
STR	49	96	2
SI_	49	96	2	96	48	7
TAP	49	144	2
STR	49	192	6
SI_	49	192	6	96	48	1
STR	49	288	2
SI_	49	288	2	96	48	7
TAP	49	336	2
STR	50	0	6
SI_	50	0	6	96	48	1
STR	50	96	2
SSL	50	96	2	96	96	6
STR	51	0	5
SI_	51	0	5	96	48	3
TAP	51	0	7
TAP	51	96	1
STR	51	192	5
SI_	51	192	5	96	48	3
TAP	51	192	7
TAP	51	240	7
TAP	51	288	1
STR	52	0	5
SI_	52	0	5	96	48	3
TAP	52	0	7
TAP	52	96	2
STR	52	192	5
SI_	52	192	5	96	48	3
TAP	52	192	7
TAP	52	240	7
TAP	52	288	2
TAP	53	0	0
TAP	53	0	6
STR	53	96	5
SI_	53	96	5	96	48	0
TAP	53	144	5
STR	53	192	1
SI_	53	192	1	96	48	6
STR	53	288	5
SI_	53	288	5	96	48	0
TAP	53	336	5
STR	54	0	1
SI_	54	0	1	96	48	6
STR	54	96	5
SI_	54	96	5	96	48	0
TAP	54	192	4
TAP	54	240	3
TAP	54	288	2
TAP	54	336	1
TAP	55	0	0
STR	55	0	7
SI_	55	0	7	96	48	4
STR	55	96	2
SI_	55	96	2	96	48	5
TAP	55	144	2
STR	55	192	7
SI_	55	192	7	96	48	4
STR	55	288	2
SI_	55	288	2	96	48	5
TAP	55	336	2
TAP	56	0	6
TAP	56	48	7
TAP	56	96	0
TAP	56	144	1
STR	56	192	2
SV_	56	192	2	96	48	0
STR	56	192	5
SV_	56	192	5	96	48	7
HLD	57	0	2	192
STR	57	0	6
SSL	57	0	6	96	480	2
TAP	57	288	3
HLD	58	0	3	1056
TAP	58	288	4
TAP	59	0	5
TAP	59	96	6
TAP	59	192	7
STR	59	288	0
SSL	59	288	0	96	288	4
STR	61	0	1
SSR	61	0	1	96	480	5
HLD	61	0	5	192
TAP	61	288	7
HLD	62	0	7	384
TAP	62	288	6
TAP	63	0	5
STR	63	96	4
SV_	63	96	4	96	288	1
SV_	63	96	4	96	288	7
HLD	65	0	3	384
HLD	65	0	6	48
HLD	65	96	6	48
HLD	65	192	5	48
HLD	65	288	5	48
TAP	66	0	4
TAP	66	48	4
TAP	66	96	3
HLD	66	96	5	96
TAP	66	192	6
TAP	66	240	5
TAP	66	288	3
TAP	66	288	4
HLD	67	0	1	48
HLD	67	0	4	384
HLD	67	96	1	48
HLD	67	192	2	48
HLD	67	288	2	48
TAP	68	0	3
TAP	68	48	3
STR	68	96	2
SLR	68	96	2	96	144	0
TAP	68	96	4
STR	68	192	7
SI_	68	192	7	96	48	5
HLD	69	0	1	48
HLD	69	0	4	384
HLD	69	96	2	48
HLD	69	192	3	48
HLD	69	288	5	48
TAP	70	0	6
TAP	70	48	6
TAP	70	96	5
HLD	70	96	7	96
TAP	70	192	4
TAP	70	240	4
HLD	70	288	3	96
TAP	70	288	5
TAP	71	0	4
TAP	71	48	4
TAP	71	96	3
TAP	71	144	3
TAP	71	192	2
TAP	71	192	5
TAP	71	240	6
TAP	71	264	7
TAP	71	288	6
TAP	71	336	1
TAP	71	360	0
STR	72	0	1
SI_	72	0	1	96	48	5
STR	72	96	6
SI_	72	96	6	96	48	2
STR	72	192	0
SF_	72	192	0	96	48	4
BRK	73	0	1
BRK	73	0	7
TAP	73	96	3
TAP	73	96	4
TAP	73	144	5
STR	73	192	6
SI_	73	192	6	96	48	3
STR	73	192	7
SI_	73	192	7	96	48	2
TAP	74	0	0
TAP	74	48	7
TAP	74	96	6
TAP	74	144	5
STR	74	192	3
SI_	74	192	3	96	48	0
STR	74	192	4
SI_	74	192	4	96	48	7
STR	75	0	0
SCL	75	0	0	96	48	5
TAP	75	0	1
TAP	75	48	2
TAP	75	96	3
STR	75	144	4
SCL	75	144	4	96	48	1
TAP	75	192	5
TAP	75	240	6
HLD	75	288	7	96
TAP	76	0	0
TAP	76	48	7
TAP	76	96	3
TAP	76	96	6
TAP	76	144	2
TAP	76	144	5
STR	76	192	1
SI_	76	192	1	96	48	6
HLD	76	192	4	96
TAP	77	0	0
STR	77	0	4
SI_	77	0	4	96	48	0
TAP	77	96	1
TAP	77	144	2
STR	77	192	3
SV_	77	192	3	96	48	0
STR	77	192	7
SV_	77	192	7	96	48	4
TAP	78	0	1
STR	78	0	5
SI_	78	0	5	96	48	1
TAP	78	96	2
TAP	78	144	3
STR	78	192	0
SV_	78	192	0	96	48	5
STR	78	192	4
SV_	78	192	4	96	48	1
TAP	79	0	2
STR	79	0	4
SI_	79	0	4	96	48	0
TAP	79	96	1
TAP	79	144	2
STR	79	192	3
SV_	79	192	3	96	48	0
STR	79	192	7
SV_	79	192	7	96	48	4
TAP	80	0	1
STR	80	0	5
SI_	80	0	5	96	48	1
TAP	80	96	2
TAP	80	144	3
TAP	80	192	4
TAP	80	240	5
BRK	80	288	1
BRK	80	288	6
TAP	81	0	0
TAP	81	0	7
TAP	81	96	6
STR	81	144	7
SI_	81	144	7	96	48	4
STR	81	192	0
SI_	81	192	0	96	48	3
TAP	82	0	4
TAP	82	48	3
STR	82	96	2
SCR	82	96	2	96	48	5
STR	82	96	5
SI_	82	96	5	96	48	2
TAP	82	288	0
TAP	82	288	7
TAP	83	0	6
STR	83	0	7
SCR	83	0	7	96	48	2
TAP	83	48	5
TAP	83	96	4
STR	83	144	3
SCR	83	144	3	96	48	6
TAP	83	192	2
TAP	83	240	1
HLD	83	288	0	96
STR	84	0	7
SI_	84	0	7	96	48	3
TAP	84	48	7
STR	84	96	0
SI_	84	96	0	96	48	2
TAP	84	144	0
STR	84	192	4
SI_	84	192	4	96	48	6
TAP	84	240	4
STR	85	0	3
SI_	85	0	3	96	48	7
TAP	85	0	7
TAP	85	96	6
TAP	85	144	5
STR	85	192	0
SV_	85	192	0	96	48	3
STR	85	192	4
SV_	85	192	4	96	48	7
STR	86	0	2
SI_	86	0	2	96	48	6
TAP	86	0	6
TAP	86	96	5
TAP	86	144	4
STR	86	192	3
SV_	86	192	3	96	48	6
STR	86	192	7
SV_	86	192	7	96	48	2
STR	87	0	3
SI_	87	0	3	96	48	7
TAP	87	0	5
TAP	87	96	6
TAP	87	144	5
STR	87	192	0
SV_	87	192	0	96	48	3
STR	87	192	4
SV_	87	192	4	96	48	7
HLD	88	0	0	96
STR	88	0	3
SI_	88	0	3	96	48	7
HLD	88	192	2	96
HLD	88	192	5	96
BRK	89	0	4
BRK	89	0	6
STR	89	96	0
SUR	89	96	0	96	48	4
TAP	89	144	0
STR	89	192	6
SUL	89	192	6	96	48	2
STR	89	288	0
SUR	89	288	0	96	48	4
TAP	89	336	0
STR	90	0	6
SUL	90	0	6	96	48	2
STR	90	96	0
SSL	90	96	0	96	96	4
TAP	91	0	2
STR	91	0	6
SI_	91	0	6	96	48	0
TAP	91	96	4
TAP	91	192	2
STR	91	192	6
SI_	91	192	6	96	48	0
TAP	91	240	2
TAP	91	288	4
TAP	92	0	1
STR	92	0	6
SI_	92	0	6	96	48	0
TAP	92	96	4
TAP	92	192	1
STR	92	192	6
SI_	92	192	6	96	48	0
TAP	92	240	1
TAP	92	288	4
TAP	93	0	1
TAP	93	0	3
STR	93	96	7
SUL	93	96	7	96	48	3
TAP	93	144	7
STR	93	192	1
SUR	93	192	1	96	48	5
STR	93	288	7
SUL	93	288	7	96	48	3
TAP	93	336	7
STR	94	0	1
SUR	94	0	1	96	48	5
STR	94	96	7
SUL	94	96	7	96	48	3
TAP	94	192	1
TAP	94	240	0
TAP	94	288	7
TAP	94	336	6
TAP	95	0	1
STR	95	0	5
SI_	95	0	5	96	48	0
TAP	95	96	3
TAP	95	144	3
TAP	95	192	1
STR	95	192	5
SI_	95	192	5	96	48	0
TAP	95	288	3
TAP	95	336	3
TAP	96	0	2
TAP	96	0	4
TAP	96	48	2
TAP	96	48	4
TAP	96	96	3
TAP	96	96	5
TAP	96	144	3
TAP	96	144	5
STR	96	192	0
SF_	96	192	0	96	48	4
TAP	96	288	0
BRK	97	0	1
BRK	97	0	7

T_REC_TAP	309
T_REC_BRK	15
T_REC_XTP	0
T_REC_HLD	51
T_REC_XHO	0
T_REC_STR	153
T_REC_BST	0
T_REC_XST	0
T_REC_TTP	0
T_REC_THO	0
T_REC_SLD	154
T_REC_ALL	682
T_NUM_TAP	462
T_NUM_BRK	15
T_NUM_HLD	51
T_NUM_SLD	154
T_NUM_ALL	682
T_JUDGE_TAP	477
T_JUDGE_HLD	196
T_JUDGE_SLD	154
T_JUDGE_ALL	827
TTM_EACHPAIRS	112
TTM_SCR_TAP	231000
TTM_SCR_BRK	39000
TTM_SCR_HLD	51000
TTM_SCR_SLD	231000
TTM_SCR_ALL	552000
TTM_SCR_S	534000
TTM_SCR_SS	550500
TTM_RAT_ACV	10027

