VERSION	0.00.00	1.03.00
FES_MODE	0
BPM_DEF	184.000	184.000	184.000	184.000
MET_DEF	4	4
RESOLUTION	384
CLK_DEF	384
COMPATIBLE_CODE	MA2

BPM	0	0	184.000
MET	0	0	4	4

HLD	1	0	3	384
HLD	3	0	4	384
STR	5	0	3
SI_	5	0	3	96	288	0
STR	7	0	4
SI_	7	0	4	96	288	7
HLD	9	0	0	96
TAP	9	0	6
TAP	9	96	6
TAP	9	192	1
HLD	9	192	7	96
TAP	9	288	1
TAP	10	0	0
TAP	10	0	7
TAP	10	96	1
TAP	10	96	6
TAP	10	192	2
TAP	10	192	5
TAP	11	0	5
TAP	11	96	4
TAP	11	192	6
TAP	11	288	1
TAP	11	288	5
TAP	12	0	2
TAP	12	96	3
TAP	12	192	1
TAP	12	288	2
TAP	12	288	6
TAP	13	0	1
HLD	13	0	7	96
TAP	13	96	1
HLD	13	192	0	96
TAP	13	192	6
TAP	13	288	6
TAP	14	0	0
TAP	14	0	7
TAP	14	96	1
TAP	14	96	6
TAP	14	192	2
TAP	14	192	5
TAP	14	288	3
TAP	14	288	4
STR	15	0	3
SI_	15	0	3	96	48	7
STR	15	192	4
SI_	15	192	4	96	48	0
TAP	16	0	3
TAP	16	96	4
BRK	16	192	1
BRK	16	192	6
TAP	17	0	1
TAP	17	96	1
TAP	17	192	2
TAP	17	288	2
TAP	18	0	3
TAP	18	96	3
TAP	18	192	4
TAP	18	192	5
TAP	19	0	6
TAP	19	96	6
TAP	19	192	5
TAP	19	288	5
TAP	20	0	4
TAP	20	96	4
TAP	20	192	2
TAP	20	192	3
STR	21	0	0
SCR	21	0	0	96	96	3
STR	21	0	4
SCR	21	0	4	96	96	7
STR	22	0	3
SCL	22	0	3	96	96	0
STR	22	0	7
SCL	22	0	7	96	96	4
STR	23	0	0
SXL	23	0	0	96	288	3
STR	23	0	4
SXL	23	0	4	96	288	7
TAP	24	192	7
TAP	24	288	7
TAP	25	0	4
TAP	25	0	5
TAP	25	96	4
TAP	25	96	5
TAP	25	192	3
TAP	25	192	4
TAP	25	288	3
TAP	25	288	4
TAP	26	0	2
TAP	26	0	3
TAP	26	96	2
TAP	26	96	3
TAP	26	192	1
TAP	26	192	4
TAP	27	0	2
TAP	27	0	3
TAP	27	96	2
TAP	27	96	3
TAP	27	192	3
TAP	27	192	4
TAP	27	288	3
TAP	27	288	4
TAP	28	0	4
TAP	28	0	5
TAP	28	96	4
TAP	28	96	5
TAP	28	192	3
TAP	28	192	6
STR	29	0	3
SXR	29	0	3	96	96	1
STR	29	0	7
SXR	29	0	7	96	96	5
STR	30	0	0
SXL	30	0	0	96	96	2
STR	30	0	4
SXL	30	0	4	96	96	6
STR	31	0	3
SXR	31	0	3	96	288	4
STR	31	0	7
SXR	31	0	7	96	288	0
TAP	32	96	7
TAP	32	192	0
BRK	32	288	1
BRK	32	288	6
TAP	33	0	0
TAP	33	0	1
TAP	33	96	2
TAP	33	96	7
TAP	33	192	5
TAP	33	240	4
TAP	33	288	5
TAP	34	0	6
TAP	34	0	7
TAP	34	96	0
TAP	34	96	5
TAP	34	192	2
TAP	34	240	3
TAP	34	288	2
HLD	35	0	6	96
TAP	35	96	5
HLD	35	144	6	96
TAP	35	240	7
TAP	35	288	6
TAP	36	0	4
TAP	36	0	5
TAP	36	96	1
TAP	36	96	7
TAP	36	192	2
TAP	36	192	3
TAP	36	288	0
TAP	36	288	6
STR	37	0	1
SI_	37	0	1	96	48	5
STR	37	192	6
SI_	37	192	6	96	48	2
STR	38	0	0
SI_	38	0	0	96	48	4
STR	38	192	7
SI_	38	192	7	96	48	3
STR	39	0	0
SCR	39	0	0	96	192	7
TAP	40	0	1
TAP	40	0	6
TAP	40	192	3
TAP	40	192	4
BRK	40	288	2
BRK	40	288	5
TAP	41	0	6
TAP	41	0	7
TAP	41	96	0
TAP	41	96	5
TAP	41	192	2
TAP	41	240	3
TAP	41	288	2
TAP	42	0	0
TAP	42	0	1
TAP	42	96	2
TAP	42	96	7
TAP	42	192	5
TAP	42	240	4
TAP	42	288	5
HLD	43	0	1	96
TAP	43	96	2
HLD	43	144	1	96
TAP	43	240	0
TAP	43	288	1
TAP	44	0	2
TAP	44	0	3
TAP	44	96	0
TAP	44	96	6
TAP	44	192	4
TAP	44	192	5
TAP	44	288	1
TAP	44	288	7
STR	45	0	6
SI_	45	0	6	96	48	2
STR	45	192	1
SI_	45	192	1	96	48	5
STR	46	0	7
SI_	46	0	7	96	48	3
STR	46	192	0
SI_	46	192	0	96	48	4
STR	47	0	7
SCL	47	0	7	96	192	0
TAP	48	0	1
TAP	48	0	6
HLD	48	192	0	192
BRK	49	0	7
HLD	49	96	6	96
TAP	49	96	7
TAP	49	192	0
TAP	49	288	0
HLD	49	288	1	96
TAP	50	0	7
TAP	50	96	4
TAP	50	96	5
TAP	50	192	2
TAP	50	192	7
TAP	51	0	5
TAP	51	48	4
TAP	51	96	5
TAP	51	192	2
TAP	51	240	3
TAP	51	288	2
TAP	52	0	6
TAP	52	48	4
TAP	52	96	5
TAP	52	192	1
TAP	52	240	3
TAP	52	288	2
TAP	53	0	0
TAP	53	0	7
TAP	53	96	0
HLD	53	96	1	96
TAP	53	192	7
HLD	53	288	6	96
TAP	53	288	7
TAP	54	0	0
TAP	54	96	2
TAP	54	96	3
TAP	54	192	0
TAP	54	192	5
TAP	54	288	3
TAP	54	288	6
STR	55	0	1
SI_	55	0	1	96	48	4
STR	55	192	6
SI_	55	192	6	96	48	3
TAP	56	0	1
TAP	56	96	2
TAP	56	96	6
BRK	56	192	1
BRK	56	192	5
STR	57	0	0
SCR	57	0	0	96	288	3
TAP	58	288	7
STR	59	0	7
SCL	59	0	7	96	288	3
TAP	60	288	0
STR	61	0	0
SCR	61	0	0	96	288	5
TAP	62	288	7
STR	63	0	7
SCL	63	0	7	96	288	1
HLD	65	0	0	384
TAP	65	0	7
TAP	65	192	1
HLD	66	0	1	384
TAP	66	192	2
HLD	67	0	2	384
TAP	67	192	3
TAP	68	0	3
TAP	68	96	4
TAP	68	192	3
TAP	68	192	5
TAP	69	0	4
HLD	69	0	5	384
TAP	69	192	6
HLD	70	0	6	384
TAP	70	192	7
HLD	71	0	7	384
TAP	71	192	0
TAP	72	0	0
TAP	72	96	7
TAP	72	192	0
BRK	72	288	1
BRK	72	288	6
TAP	73	0	0
TAP	73	0	1
TAP	73	96	2
TAP	73	96	7
TAP	73	192	3
TAP	73	240	4
TAP	73	288	3
TAP	73	288	5
TAP	74	0	6
TAP	74	0	7
TAP	74	96	0
TAP	74	96	5
TAP	74	192	4
TAP	74	240	3
TAP	74	288	2
TAP	74	288	4
HLD	75	0	3	96
HLD	75	0	7	96
HLD	75	144	0	96
HLD	75	144	4	96
TAP	75	288	3
TAP	75	288	7
TAP	76	0	6
TAP	76	48	7
TAP	76	96	0
TAP	76	96	5
TAP	76	192	2
TAP	76	240	3
TAP	76	288	1
TAP	76	288	4
STR	77	0	1
SCR	77	0	1	96	48	4
STR	77	192	6
SCL	77	192	6	96	48	3
STR	78	0	0
SUR	78	0	0	96	48	4
STR	78	192	7
SUL	78	192	7	96	48	3
STR	79	0	0
SCR	79	0	0	96	192	7
TAP	80	0	1
TAP	80	0	6
TAP	80	192	0
TAP	80	240	7
BRK	80	288	1
BRK	80	288	6
TAP	81	0	6
TAP	81	0	7
TAP	81	96	0
TAP	81	96	5
TAP	81	192	4
TAP	81	240	3
TAP	81	288	2
TAP	81	288	4
TAP	82	0	0
TAP	82	0	1
TAP	82	96	2
TAP	82	96	7
TAP	82	192	3
TAP	82	240	4
TAP	82	288	3
TAP	82	288	5
HLD	83	0	0	96
HLD	83	0	4	96
HLD	83	144	3	96
HLD	83	144	7	96
TAP	83	288	0
TAP	83	288	4
TAP	84	0	1
TAP	84	48	0
TAP	84	96	2
TAP	84	96	7
TAP	84	192	5
TAP	84	240	4
TAP	84	288	3
TAP	84	288	6
STR	85	0	6
SCL	85	0	6	96	48	3
STR	85	192	1
SCR	85	192	1	96	48	4
STR	86	0	7
SUL	86	0	7	96	48	3
STR	86	192	0
SUR	86	192	0	96	48	4
STR	87	0	7
SCL	87	0	7	96	192	0
TAP	88	0	1
TAP	88	0	6
HLD	88	192	7	192
BRK	89	0	0
TAP	89	96	3
TAP	89	96	5
TAP	89	192	0
TAP	89	192	7
TAP	89	288	2
TAP	89	288	4
TAP	90	0	0
TAP	90	0	1
TAP	90	96	4
TAP	90	96	5
TAP	90	192	2
TAP	90	192	7
TAP	91	0	2
TAP	91	48	3
TAP	91	96	1
TAP	91	144	4
TAP	91	192	2
TAP	91	192	3
TAP	91	288	0
TAP	91	288	6
TAP	92	0	5
TAP	92	48	4
TAP	92	96	6
TAP	92	144	3
TAP	92	192	4
TAP	92	192	5
TAP	92	288	1
TAP	92	288	7
TAP	93	0	0
TAP	93	0	7
TAP	93	96	2
TAP	93	96	4
TAP	93	192	0
TAP	93	192	7
TAP	93	288	3
TAP	93	288	5
TAP	94	0	0
TAP	94	0	1
TAP	94	96	4
TAP	94	96	5
TAP	94	192	2
TAP	94	192	7
TAP	94	288	1
TAP	94	288	4
STR	95	0	2
SCR	95	0	2	96	48	5
STR	95	192	6
SUL	95	192	6	96	48	1
STR	96	0	0
SF_	96	0	0	96	96	4
TAP	96	288	1
TAP	96	288	6
TAP	97	0	7
TAP	97	192	6
TAP	98	0	5
TAP	98	192	3
TAP	98	192	4
TAP	99	0	3
TAP	99	192	2
TAP	100	0	1
TAP	100	192	0
TAP	100	192	7
STR	101	0	1
SCR	101	0	1	96	672	7
STR	101	0	6
SCL	101	0	6	96	672	0

T_REC_TAP	305
T_REC_BRK	14
T_REC_XTP	0
T_REC_HLD	30
T_REC_XHO	0
T_REC_STR	47
T_REC_BST	0
T_REC_XST	0
T_REC_TTP	0
T_REC_THO	0
T_REC_SLD	47
T_REC_ALL	443
T_NUM_TAP	352
T_NUM_BRK	14
T_NUM_HLD	30
T_NUM_SLD	47
T_NUM_ALL	443
T_JUDGE_TAP	366
T_JUDGE_HLD	112
T_JUDGE_SLD	47
T_JUDGE_ALL	525
TTM_EACHPAIRS	120
TTM_SCR_TAP	176000
TTM_SCR_BRK	36400
TTM_SCR_HLD	30000
TTM_SCR_SLD	70500
TTM_SCR_ALL	312900
TTM_SCR_S	302200
TTM_SCR_SS	311500
TTM_RAT_ACV	10044

