VERSION	0.00.00	1.03.00
FES_MODE	0
BPM_DEF	184.000	184.000	184.000	184.000
MET_DEF	4	4
RESOLUTION	384
CLK_DEF	384
COMPATIBLE_CODE	MA2

BPM	0	0	184.000
MET	0	0	4	4

STR	1	0	5
SCR	1	0	5	96	480	2
STR	3	0	3
SUL	3	0	3	96	480	4
STR	5	0	3
SCL	5	0	3	96	576	4
STR	7	0	3
SI_	7	0	3	96	288	0
TAP	7	0	4
TAP	9	0	6
TAP	9	96	6
TAP	9	192	6
TAP	9	192	7
TAP	10	0	1
TAP	10	96	1
TAP	10	192	0
TAP	10	192	1
TAP	11	0	7
TAP	11	96	7
TAP	11	192	6
TAP	12	0	5
TAP	12	96	5
TAP	12	192	4
TAP	13	0	2
TAP	13	96	2
TAP	13	192	2
TAP	13	192	3
TAP	14	0	5
TAP	14	96	5
TAP	14	192	4
TAP	14	192	5
TAP	15	0	3
TAP	15	96	3
STR	15	192	2
SI_	15	192	2	96	288	5
HLD	17	0	6	192
TAP	17	192	7
HLD	18	0	1	192
TAP	18	192	0
HLD	19	0	6	192
TAP	19	192	7
HLD	20	0	1	192
TAP	20	192	0
STR	21	0	0
SCR	21	0	0	96	576	7
STR	23	0	0
SCL	23	0	0	96	576	1
HLD	25	0	2	192
TAP	25	192	3
HLD	26	0	5	192
TAP	26	192	4
HLD	27	0	2	192
TAP	27	192	3
HLD	28	0	5	192
TAP	28	192	4
STR	29	0	6
SUL	29	0	6	96	480	3
TAP	31	0	2
TAP	31	192	1
TAP	32	0	0
TAP	32	96	0
TAP	32	192	7
TAP	32	288	7
BRK	33	0	6
TAP	33	96	7
TAP	33	192	6
TAP	33	192	7
TAP	34	0	1
TAP	34	96	0
TAP	34	192	0
TAP	34	192	1
TAP	35	0	6
TAP	35	96	6
TAP	35	192	7
TAP	35	288	7
TAP	36	0	6
TAP	36	96	7
TAP	36	192	0
TAP	36	192	5
HLD	37	0	5	192
TAP	37	96	4
TAP	37	192	4
HLD	38	0	2	192
TAP	38	96	3
TAP	38	192	3
STR	39	0	0
SI_	39	0	0	96	288	5
STR	39	0	1
SI_	39	0	1	96	288	4
TAP	40	192	4
TAP	40	192	5
BRK	41	0	6
TAP	41	96	7
TAP	41	192	6
TAP	41	192	7
TAP	42	0	1
TAP	42	96	0
TAP	42	192	0
TAP	42	192	1
TAP	43	0	6
TAP	43	96	6
TAP	43	192	7
TAP	43	288	7
TAP	44	0	6
TAP	44	96	7
TAP	44	192	0
TAP	44	192	5
HLD	45	0	5	192
TAP	45	96	4
TAP	45	192	4
HLD	46	0	2	192
TAP	46	96	3
TAP	46	192	3
STR	47	0	1
SI_	47	0	1	96	288	6
STR	47	0	2
SI_	47	0	2	96	288	5
TAP	48	192	7
TAP	48	288	0
BRK	49	0	1
BRK	49	0	6
TAP	49	192	6
TAP	49	192	7
TAP	50	0	1
TAP	50	96	1
TAP	50	192	0
TAP	50	192	1
TAP	51	0	7
TAP	51	96	7
TAP	51	192	6
TAP	52	0	5
TAP	52	96	5
TAP	52	192	4
TAP	53	0	2
TAP	53	96	2
TAP	53	192	2
TAP	53	192	3
TAP	54	0	5
TAP	54	96	5
TAP	54	192	4
TAP	54	192	5
TAP	55	0	3
TAP	55	96	3
STR	55	192	2
SI_	55	192	2	96	288	5
HLD	57	0	6	384
HLD	58	0	5	384
HLD	59	0	4	384
TAP	60	0	3
HLD	61	0	4	384
HLD	62	0	3	384
HLD	63	0	2	384
BRK	64	0	1
STR	65	0	1
SI_	65	0	1	96	288	6
STR	67	0	1
SI_	67	0	1	96	288	6
STR	67	0	2
SI_	67	0	2	96	288	5
STR	69	0	3
SI_	69	0	3	96	288	0
STR	69	0	4
SI_	69	0	4	96	288	7
HLD	71	0	0	192
HLD	71	0	7	192
TAP	72	0	7
TAP	72	96	7
TAP	72	192	0
TAP	72	288	0
BRK	73	0	1
TAP	73	96	0
TAP	73	96	1
TAP	73	192	0
TAP	73	192	1
TAP	74	0	6
TAP	74	96	6
TAP	74	96	7
TAP	74	192	6
TAP	74	192	7
TAP	75	0	1
TAP	75	96	1
TAP	75	192	0
TAP	75	288	0
TAP	76	0	1
TAP	76	96	0
TAP	76	96	1
TAP	76	192	2
TAP	76	192	7
HLD	77	0	2	192
TAP	77	96	3
TAP	77	192	3
HLD	78	0	5	192
TAP	78	96	4
TAP	78	192	4
STR	79	0	0
SI_	79	0	0	96	288	3
STR	79	0	7
SI_	79	0	7	96	288	4
BRK	80	192	2
BRK	80	192	5
BRK	81	0	1
TAP	81	96	0
TAP	81	96	1
TAP	81	192	0
TAP	81	192	1
TAP	82	0	6
TAP	82	96	6
TAP	82	96	7
TAP	82	192	6
TAP	82	192	7
TAP	83	0	1
TAP	83	96	1
TAP	83	192	0
TAP	83	288	0
TAP	84	0	1
TAP	84	96	0
TAP	84	96	1
TAP	84	192	2
TAP	84	192	7
HLD	85	0	2	192
TAP	85	96	3
TAP	85	192	3
HLD	86	0	5	192
TAP	86	96	4
TAP	86	192	4
STR	87	0	3
SF_	87	0	3	96	288	7
TAP	88	192	0
TAP	88	192	7
TAP	88	288	0
TAP	88	288	7
BRK	89	0	1
BRK	89	0	6
TAP	89	192	6
TAP	89	192	7
TAP	90	0	0
TAP	90	0	1
TAP	90	96	0
TAP	90	96	1
TAP	90	192	0
TAP	90	192	1
TAP	91	0	7
TAP	91	96	7
TAP	91	192	6
TAP	91	192	7
TAP	92	0	5
TAP	92	96	5
TAP	92	192	4
TAP	92	192	5
TAP	93	0	2
TAP	93	0	3
TAP	93	96	2
TAP	93	96	3
TAP	93	192	2
TAP	93	192	3
TAP	94	0	4
TAP	94	0	5
TAP	94	96	4
TAP	94	96	5
TAP	94	192	4
TAP	94	192	5
TAP	95	0	3
TAP	95	96	3
STR	95	192	2
SUL	95	192	2	96	480	3
TAP	97	192	4
TAP	97	192	5
HLD	98	0	2	192
TAP	98	192	3
HLD	99	0	4	192
TAP	99	192	3
HLD	100	0	3	192
TAP	100	192	4
TAP	101	0	4

T_REC_TAP	192
T_REC_BRK	11
T_REC_XTP	0
T_REC_HLD	27
T_REC_XHO	0
T_REC_STR	22
T_REC_BST	0
T_REC_XST	0
T_REC_TTP	0
T_REC_THO	0
T_REC_SLD	22
T_REC_ALL	274
T_NUM_TAP	214
T_NUM_BRK	11
T_NUM_HLD	27
T_NUM_SLD	22
T_NUM_ALL	274
T_JUDGE_TAP	225
T_JUDGE_HLD	132
T_JUDGE_SLD	22
T_JUDGE_ALL	379
TTM_EACHPAIRS	52
TTM_SCR_TAP	107000
TTM_SCR_BRK	28600
TTM_SCR_HLD	27000
TTM_SCR_SLD	33000
TTM_SCR_ALL	195600
TTM_SCR_S	188700
TTM_SCR_SS	194500
TTM_RAT_ACV	10056

