VERSION	0.00.00	1.03.00
FES_MODE	0
BPM_DEF	184.000	184.000	184.000	184.000
MET_DEF	4	4
RESOLUTION	384
CLK_DEF	384
COMPATIBLE_CODE	MA2

BPM	0	0	184.000
MET	0	0	4	4

HLD	1	0	0	384
HLD	3	0	1	384
HLD	5	0	2	384
HLD	7	0	3	384
TAP	9	0	4
TAP	9	192	4
TAP	10	0	4
TAP	11	0	5
TAP	11	192	5
TAP	12	0	5
TAP	13	0	6
TAP	13	192	6
TAP	14	0	6
TAP	15	0	7
TAP	15	192	0
TAP	16	0	7
TAP	17	0	7
TAP	17	192	7
TAP	18	0	7
TAP	19	0	6
TAP	19	192	6
TAP	20	0	6
TAP	21	0	5
TAP	21	192	5
TAP	22	0	5
STR	23	0	4
SI_	23	0	4	96	288	7
TAP	25	0	0
TAP	25	192	0
TAP	26	0	0
TAP	27	0	1
TAP	27	192	1
TAP	28	0	1
TAP	29	0	2
TAP	29	192	2
TAP	30	0	2
STR	31	0	3
SI_	31	0	3	96	288	0
BRK	33	0	7
TAP	33	192	7
TAP	34	0	6
TAP	34	96	6
TAP	34	192	6
TAP	35	0	5
TAP	35	192	5
TAP	36	0	4
TAP	36	96	4
TAP	36	192	3
TAP	36	192	4
TAP	37	0	3
TAP	37	192	3
TAP	38	0	2
TAP	38	96	2
TAP	38	192	2
TAP	38	192	3
TAP	39	0	1
TAP	39	192	1
TAP	40	0	0
TAP	40	96	0
TAP	40	192	0
TAP	40	192	7
TAP	41	0	0
TAP	41	192	0
TAP	42	0	1
TAP	42	96	1
TAP	42	192	1
TAP	43	0	2
TAP	43	192	2
TAP	44	0	3
TAP	44	96	3
TAP	44	192	3
TAP	44	192	4
TAP	45	0	4
TAP	45	192	4
TAP	46	0	5
TAP	46	96	5
TAP	46	192	4
TAP	46	192	5
TAP	47	0	6
TAP	47	192	6
TAP	48	0	7
TAP	48	96	7
TAP	48	192	0
TAP	48	192	7
HLD	49	0	6	384
HLD	49	0	7	384
TAP	51	0	5
TAP	51	96	5
TAP	51	192	5
TAP	52	0	4
TAP	52	96	4
TAP	52	192	4
HLD	53	0	2	384
HLD	53	0	3	384
TAP	55	0	1
TAP	55	96	1
TAP	55	192	1
TAP	56	0	0
TAP	56	96	0
TAP	56	192	0
STR	57	0	7
SI_	57	0	7	96	288	3
STR	59	0	0
SI_	59	0	0	96	288	4
STR	61	0	7
SI_	61	0	7	96	288	2
STR	63	0	0
SI_	63	0	0	96	288	5
STR	65	0	6
SI_	65	0	6	96	288	2
STR	67	0	1
SI_	67	0	1	96	288	5
STR	69	0	6
SI_	69	0	6	96	288	3
STR	71	0	1
SI_	71	0	1	96	288	4
BRK	73	0	5
TAP	73	96	5
TAP	73	192	5
TAP	74	0	4
TAP	74	96	4
TAP	74	192	4
TAP	75	0	3
TAP	75	96	3
TAP	75	192	3
TAP	76	0	2
TAP	76	0	3
TAP	76	96	2
TAP	76	96	3
TAP	76	192	2
TAP	76	192	3
TAP	77	0	2
TAP	77	96	2
TAP	77	192	2
TAP	78	0	1
TAP	78	96	1
TAP	78	192	1
TAP	79	0	0
TAP	79	96	0
TAP	79	192	0
TAP	80	0	6
TAP	80	0	7
TAP	80	96	6
TAP	80	96	7
TAP	80	192	6
TAP	80	192	7
TAP	81	0	0
TAP	81	96	0
TAP	81	192	0
TAP	82	0	1
TAP	82	96	1
TAP	82	192	1
TAP	83	0	2
TAP	83	96	2
TAP	83	192	2
TAP	84	0	2
TAP	84	0	3
TAP	84	96	2
TAP	84	96	3
TAP	84	192	2
TAP	84	192	3
TAP	85	0	3
TAP	85	96	3
TAP	85	192	3
TAP	86	0	4
TAP	86	96	4
TAP	86	192	4
TAP	87	0	5
TAP	87	96	5
TAP	87	192	5
TAP	88	0	6
TAP	88	0	7
TAP	88	96	6
TAP	88	96	7
TAP	88	192	6
TAP	88	192	7
BRK	89	0	0
TAP	89	96	0
TAP	89	192	7
TAP	89	288	7
TAP	90	0	6
TAP	90	96	6
TAP	90	192	6
TAP	90	192	7
TAP	91	0	5
TAP	91	96	5
TAP	91	192	4
TAP	91	288	4
TAP	92	0	3
TAP	92	96	3
TAP	92	192	3
TAP	92	192	4
TAP	93	0	2
TAP	93	96	2
TAP	93	192	1
TAP	93	288	1
TAP	94	0	0
TAP	94	96	0
TAP	94	192	0
TAP	94	192	7
TAP	95	0	6
TAP	95	96	6
TAP	95	192	5
TAP	95	288	5
TAP	96	0	4
TAP	96	96	4
TAP	96	192	3
TAP	96	192	4
STR	97	0	3
SI_	97	0	3	96	288	0
STR	99	0	4
SI_	99	0	4	96	288	7

T_REC_TAP	177
T_REC_BRK	3
T_REC_XTP	0
T_REC_HLD	8
T_REC_XHO	0
T_REC_STR	12
T_REC_BST	0
T_REC_XST	0
T_REC_TTP	0
T_REC_THO	0
T_REC_SLD	12
T_REC_ALL	212
T_NUM_TAP	189
T_NUM_BRK	3
T_NUM_HLD	8
T_NUM_SLD	12
T_NUM_ALL	212
T_JUDGE_TAP	192
T_JUDGE_HLD	64
T_JUDGE_SLD	12
T_JUDGE_ALL	268
TTM_EACHPAIRS	24
TTM_SCR_TAP	94500
TTM_SCR_BRK	7800
TTM_SCR_HLD	8000
TTM_SCR_SLD	18000
TTM_SCR_ALL	128300
TTM_SCR_S	124200
TTM_SCR_SS	128000
TTM_RAT_ACV	10023

