VERSION	0.00.00	1.03.00
FES_MODE	0
BPM_DEF	180.000	180.000	180.000	180.000
MET_DEF	4	4
RESOLUTION	384
CLK_DEF	384
COMPATIBLE_CODE	MA2

BPM	0	0	180.000
MET	0	0	4	4

TAP	5	0	3
TAP	5	24	4
TAP	5	48	3
TAP	5	72	4
TAP	5	96	3
TAP	5	120	4
TAP	5	144	3
TAP	5	168	4
TAP	5	192	3
TAP	5	216	4
TAP	5	240	3
TAP	5	264	4
TAP	5	288	3
TAP	5	312	4
TAP	5	336	3
TAP	5	360	4
TAP	6	0	2
TAP	6	24	5
TAP	6	48	2
TAP	6	72	5
TAP	6	96	2
TAP	6	120	5
TAP	6	144	2
TAP	6	168	5
TAP	6	192	2
TAP	6	216	5
TAP	6	240	2
TAP	6	264	5
TAP	6	288	2
TAP	6	312	5
TAP	6	336	2
TAP	6	360	5
BRK	7	0	1
TAP	7	24	6
TAP	7	48	1
TAP	7	72	6
BRK	7	96	1
TAP	7	120	6
TAP	7	144	1
TAP	7	168	6
BRK	7	192	0
TAP	7	216	7
TAP	7	240	0
TAP	7	264	7
BRK	7	288	0
TAP	7	312	7
TAP	7	336	0
TAP	7	360	7
BRK	8	0	0
TAP	8	12	1
TAP	8	24	2
TAP	8	36	3
TAP	8	48	4
TAP	8	60	5
TAP	8	72	6
TAP	8	84	7
BRK	8	96	0
TAP	8	108	1
TAP	8	120	2
TAP	8	132	3
TAP	8	144	4
TAP	8	156	5
TAP	8	168	6
TAP	8	180	7
BRK	8	192	0
TAP	8	204	1
TAP	8	216	2
TAP	8	228	3
TAP	8	240	4
TAP	8	252	5
TAP	8	264	6
TAP	8	276	7
BRK	8	288	0
TAP	8	300	1
TAP	8	312	2
TAP	8	324	3
TAP	8	336	4
TAP	8	348	5
TAP	8	360	6
TAP	8	372	7
TAP	9	0	0
TAP	9	48	0
TAP	9	96	1
TAP	9	96	7
TAP	9	144	7
TAP	9	192	7
TAP	9	240	0
HLD	9	240	6	96
HLD	9	336	4	96
TAP	10	48	3
TAP	10	96	2
TAP	10	144	1
STR	10	192	0
SI_	10	192	0	96	48	4
TAP	10	240	7
TAP	10	288	0
TAP	11	0	7
TAP	11	48	7
TAP	11	96	0
TAP	11	96	6
TAP	11	144	0
TAP	11	192	0
HLD	11	240	1	96
TAP	11	240	7
HLD	11	336	3	96
TAP	12	48	4
TAP	12	96	5
TAP	12	144	6
STR	12	192	0
SI_	12	192	0	96	48	4
STR	12	192	7
SI_	12	192	7	96	48	3
TAP	12	240	0
TAP	12	240	7
TAP	13	0	0
TAP	13	48	0
TAP	13	96	1
TAP	13	96	7
TAP	13	144	7
TAP	13	192	7
TAP	13	240	0
HLD	13	240	6	96
HLD	13	336	4	96
TAP	14	48	3
TAP	14	96	2
TAP	14	144	1
STR	14	192	1
SLR	14	192	1	96	48	7
STR	14	192	6
SLL	14	192	6	96	48	0
TAP	14	240	1
TAP	14	240	6
TAP	15	0	1
TAP	15	48	6
TAP	15	96	0
TAP	15	144	7
TAP	15	192	1
TAP	15	240	6
TAP	15	288	2
TAP	15	336	5
TAP	16	0	3
TAP	16	24	4
TAP	16	48	3
TAP	16	72	4
TAP	16	96	2
TAP	16	120	5
TAP	16	144	2
TAP	16	168	5
TAP	16	192	1
TAP	16	216	6
TAP	16	240	1
TAP	16	264	6
STR	16	288	0
SF_	16	288	0	96	48	4
BRK	17	0	0
TAP	17	96	7
TAP	17	192	7
TAP	17	288	7
TAP	18	0	1
TAP	18	48	7
STR	18	96	1
SCR	18	96	1	96	48	4
TAP	18	144	0
TAP	18	240	7
TAP	18	288	7
TAP	19	0	6
TAP	19	48	0
STR	19	96	6
SCL	19	96	6	96	48	3
TAP	19	144	7
TAP	19	240	0
TAP	19	288	0
TAP	20	0	1
TAP	20	48	7
STR	20	96	1
SUR	20	96	1	96	48	5
TAP	20	144	0
TAP	20	240	7
TAP	20	288	7
TAP	21	0	6
TAP	21	48	0
STR	21	96	6
SUL	21	96	6	96	48	2
TAP	21	144	7
TAP	21	240	0
TAP	21	288	0
TAP	22	0	1
TAP	22	48	7
STR	22	96	1
SUR	22	96	1	96	72	6
TAP	22	144	0
TAP	22	240	7
TAP	22	288	7
TAP	23	0	6
TAP	23	48	0
STR	23	96	6
SUL	23	96	6	96	72	1
TAP	23	144	7
TAP	23	240	0
TAP	23	288	0
TAP	24	0	1
TAP	24	48	7
STR	24	96	1
SLR	24	96	1	96	72	6
TAP	24	144	0
TAP	24	240	7
TAP	24	288	7
TAP	25	0	7
TAP	25	48	0
STR	25	96	6
SLL	25	96	6	96	72	1
TAP	25	144	7
TAP	25	240	0
TAP	25	288	0
STR	26	0	1
SV_	26	0	1	96	48	4
STR	26	0	7
SV_	26	0	7	96	48	4
TAP	26	96	1
TAP	26	96	7
STR	26	192	2
SI_	26	192	2	96	48	6
STR	26	192	5
SI_	26	192	5	96	48	3
TAP	26	288	2
TAP	26	288	5
STR	27	0	0
SV_	27	0	0	96	48	3
STR	27	0	6
SV_	27	0	6	96	48	3
TAP	27	96	0
TAP	27	96	6
STR	27	192	2
SI_	27	192	2	96	48	4
STR	27	192	5
SI_	27	192	5	96	48	1
TAP	27	288	2
TAP	27	288	5
STR	28	0	3
SV_	28	0	3	96	48	0
SV_	28	0	3	96	48	6
TAP	28	96	3
STR	28	192	1
SI_	28	192	1	96	48	5
STR	28	192	4
SI_	28	192	4	96	48	2
TAP	28	288	1
TAP	28	288	4
STR	29	0	4
SV_	29	0	4	96	48	1
SV_	29	0	4	96	48	7
TAP	29	96	4
STR	29	192	3
SI_	29	192	3	96	48	5
STR	29	192	6
SI_	29	192	6	96	48	2
TAP	29	288	3
TAP	29	288	6
STR	30	0	1
SCL	30	0	1	96	192	6
SV_	30	0	1	96	192	3
BRK	31	0	3
STR	31	96	6
SCR	31	96	6	96	96	1
STR	31	192	1
SV_	31	192	1	96	96	2
STR	31	288	2
SCR	31	288	2	96	1152	5
TAP	32	0	5
HLD	35	192	3	96
HLD	35	192	4	96
TAP	36	0	0
TAP	36	24	7
TAP	36	48	0
TAP	36	72	7
TAP	36	96	0
TAP	36	120	7
TAP	36	144	0
TAP	36	168	7
TAP	36	192	1
TAP	36	216	6
TAP	36	240	1
TAP	36	264	6
TAP	36	288	1
TAP	36	312	6
TAP	36	336	1
TAP	36	360	6
TAP	37	0	2
TAP	37	24	5
TAP	37	48	2
TAP	37	72	5
TAP	37	96	2
TAP	37	120	5
TAP	37	144	2
TAP	37	168	5
TAP	37	192	3
TAP	37	216	4
TAP	37	240	3
TAP	37	264	4
TAP	37	288	3
TAP	37	312	4
TAP	37	336	3
TAP	37	360	4
TAP	38	0	3
TAP	38	24	3
TAP	38	48	3
TAP	38	72	3
TAP	38	96	3
TAP	38	120	3
TAP	38	144	3
TAP	38	168	3
TAP	38	192	3
TAP	38	216	3
TAP	38	240	3
TAP	38	264	3
TAP	38	288	3
TAP	38	312	3
TAP	38	336	3
TAP	38	360	3
TAP	39	0	3
TAP	39	24	3
TAP	39	48	3
TAP	39	72	3
TAP	39	96	3
TAP	39	120	3
TAP	39	144	3
TAP	39	168	3
BRK	39	192	3
STR	39	288	3
SCL	39	288	3	96	96	5
HLD	40	0	4	96
STR	40	144	4
SUR	40	144	4	96	72	2
TAP	40	240	3
TAP	40	288	3
STR	40	336	3
SXR	40	336	3	96	120	7
TAP	41	48	4
TAP	41	96	5
TAP	41	144	6
TAP	41	288	0
STR	41	288	5
SCR	41	288	5	96	48	0
TAP	41	336	5
STR	42	0	2
SCL	42	0	2	96	48	7
TAP	42	48	2
STR	42	96	4
SUR	42	96	4	96	48	1
TAP	42	144	4
STR	42	192	3
SUL	42	192	3	96	48	6
TAP	42	240	3
STR	42	288	4
SCR	42	288	4	96	192	3
SUR	42	288	4	96	192	3
TAP	42	336	4
TAP	43	0	4
STR	43	288	4
SCR	43	288	4	96	96	2
HLD	44	0	3	96
STR	44	144	3
SUL	44	144	3	96	72	5
TAP	44	240	4
TAP	44	288	4
STR	44	336	4
SXL	44	336	4	96	120	0
TAP	45	48	3
TAP	45	96	2
TAP	45	144	1
STR	45	288	2
SCL	45	288	2	96	48	7
TAP	45	288	7
TAP	45	336	2
STR	46	0	5
SCR	46	0	5	96	48	0
TAP	46	48	5
STR	46	96	3
SUL	46	96	3	96	48	6
TAP	46	144	3
STR	46	192	4
SUR	46	192	4	96	48	1
TAP	46	240	4
STR	46	288	3
SCL	46	288	3	96	192	4
SUL	46	288	3	96	192	4
TAP	46	336	3
TAP	47	0	3
BRK	47	288	1
BRK	47	288	6
TAP	48	0	4
TAP	48	0	6
TAP	48	48	5
TAP	48	96	4
TAP	48	96	6
TAP	48	144	5
TAP	48	192	1
TAP	48	192	3
TAP	48	240	2
TAP	48	288	1
TAP	48	288	3
TAP	48	336	2
TAP	49	0	0
TAP	49	0	2
TAP	49	48	1
TAP	49	96	0
TAP	49	96	2
TAP	49	144	1
STR	49	192	0
SI_	49	192	0	96	48	4
TAP	49	192	6
TAP	49	240	7
TAP	49	288	0
TAP	49	288	6
TAP	50	0	3
TAP	50	0	5
TAP	50	48	4
TAP	50	96	2
STR	50	96	4
SF_	50	96	4	96	48	0
TAP	50	144	3
BRK	50	192	4
TAP	51	0	7
TAP	51	48	2
TAP	51	96	0
TAP	51	144	5
STR	51	192	1
SI_	51	192	1	96	48	5
STR	51	192	6
SI_	51	192	6	96	48	2
TAP	52	0	1
TAP	52	0	3
TAP	52	48	2
TAP	52	96	1
TAP	52	96	3
TAP	52	144	2
TAP	52	192	4
TAP	52	192	6
TAP	52	240	5
TAP	52	288	4
TAP	52	288	6
TAP	52	336	5
TAP	53	0	5
TAP	53	0	7
TAP	53	48	6
TAP	53	96	5
TAP	53	96	7
TAP	53	144	6
TAP	53	192	1
STR	53	192	7
SI_	53	192	7	96	48	3
TAP	53	240	0
TAP	53	288	1
TAP	53	288	7
TAP	54	0	4
TAP	54	0	5
TAP	54	48	3
TAP	54	48	6
TAP	54	96	2
TAP	54	96	7
TAP	54	144	0
TAP	54	144	1
TAP	54	192	6
TAP	54	192	7
TAP	54	240	0
TAP	54	240	5
TAP	54	288	1
TAP	54	288	4
TAP	54	336	2
TAP	54	336	3
TAP	55	0	4
TAP	55	24	3
TAP	55	48	4
TAP	55	72	3
TAP	55	96	5
TAP	55	120	2
TAP	55	144	5
TAP	55	168	2
STR	55	192	6
SSR	55	192	6	96	96	2
TAP	55	216	1
TAP	55	240	6
TAP	55	264	1
TAP	55	288	6
BRK	56	0	0
TAP	56	96	7
TAP	56	192	7
TAP	56	288	7
TAP	57	0	2
TAP	57	48	4
STR	57	96	2
SCL	57	96	2	96	48	7
TAP	57	144	3
TAP	57	240	4
TAP	57	288	4
TAP	58	0	5
TAP	58	48	3
STR	58	96	5
SCR	58	96	5	96	48	0
TAP	58	144	4
TAP	58	240	3
TAP	58	288	3
TAP	59	0	2
TAP	59	48	4
STR	59	96	2
SUL	59	96	2	96	48	6
TAP	59	144	3
TAP	59	240	4
TAP	59	288	4
TAP	60	0	5
TAP	60	48	3
STR	60	96	5
SUR	60	96	5	96	48	1
TAP	60	144	4
TAP	60	240	3
TAP	60	288	3
TAP	61	0	2
TAP	61	48	4
STR	61	96	2
SUL	61	96	2	96	72	5
TAP	61	144	3
TAP	61	240	4
TAP	61	288	4
TAP	62	0	5
TAP	62	48	3
STR	62	96	5
SUR	62	96	5	96	72	2
TAP	62	144	4
TAP	62	240	3
TAP	62	288	3
TAP	63	0	2
TAP	63	48	4
STR	63	96	2
SLL	63	96	2	96	72	5
TAP	63	144	3
TAP	63	240	4
TAP	63	288	4
TAP	64	0	5
TAP	64	48	3
STR	64	96	5
SLR	64	96	5	96	72	2
TAP	64	144	4
TAP	64	240	3
TAP	64	288	3
BST	65	0	2
SXR	65	0	2	96	672	4
BST	65	0	5
SXL	65	0	5	96	672	3
TAP	67	288	3
TAP	67	336	4
TAP	68	0	3
TAP	68	96	2
TAP	68	96	4
TAP	68	192	1
TAP	68	192	5
STR	68	288	0
SCL	68	288	0	96	288	1
TAP	68	288	6
TAP	69	0	0
HLD	69	0	7	360
BRK	69	360	4
TAP	70	96	0
TAP	70	96	7
TAP	70	192	1
TAP	70	192	6
TAP	70	288	2
TAP	70	288	5
TAP	71	0	3
TAP	71	24	4
TAP	71	48	3
TAP	71	72	4
TAP	71	96	3
TAP	71	120	4
TAP	71	144	2
TAP	71	168	5
TAP	71	192	2
TAP	71	216	5
TAP	71	240	2
TAP	71	264	5
TAP	71	288	2
TAP	71	312	5
BRK	71	336	2
BRK	72	0	2
TAP	72	48	3
TAP	72	48	4
TAP	72	96	3
TAP	72	120	4
BRK	72	144	3
TAP	72	192	5
TAP	72	216	4
TAP	72	240	5
TAP	72	264	4
TAP	72	288	5
TAP	72	312	4
TAP	72	336	5
TAP	72	360	4
TAP	73	0	6
TAP	73	24	3
TAP	73	48	6
TAP	73	72	3
TAP	73	96	6
TAP	73	120	3
TAP	73	144	6
TAP	73	168	3
TAP	73	192	6
TAP	73	216	3
HLD	73	240	5	96
BRK	73	336	4
TAP	74	0	5
TAP	74	24	4
TAP	74	48	5
TAP	74	72	4
BRK	74	96	5
TAP	74	144	2
TAP	74	168	3
TAP	74	192	2
TAP	74	216	3
TAP	74	240	1
TAP	74	264	4
TAP	74	288	1
TAP	74	312	4
TAP	74	336	0
TAP	74	360	5
TAP	75	0	0
TAP	75	24	5
TAP	75	48	0
TAP	75	72	5
TAP	75	96	1
TAP	75	120	4
TAP	75	144	1
TAP	75	168	4
TAP	75	192	1
TAP	75	216	4
TAP	75	240	1
TAP	75	264	4
BRK	75	288	2
BRK	75	336	1
BRK	75	336	3
BRK	76	0	1
BRK	76	0	3
TAP	76	48	1
TAP	76	72	4
TAP	76	96	1
TAP	76	120	4
TAP	76	144	1
TAP	76	168	4
BRK	76	192	1
TAP	76	240	6
TAP	76	264	7
TAP	76	288	6
TAP	76	312	7
TAP	76	336	6
TAP	76	360	7
TAP	77	0	6
TAP	77	24	7
TAP	77	48	5
TAP	77	72	0
STR	77	96	5
SSR	77	96	5	96	96	1
TAP	77	120	0
TAP	77	144	5
TAP	77	168	0
BRK	77	192	5
TAP	77	336	0
TAP	77	360	7
TAP	78	0	1
TAP	78	24	6
TAP	78	48	2
TAP	78	72	5
TAP	78	96	3
STR	78	120	4
SV_	78	120	4	96	48	2
TAP	78	144	3
TAP	78	168	4
HLD	78	192	3	96
BRK	78	216	4
STR	79	0	0
SI_	79	0	0	96	48	5
TAP	79	48	5
STR	79	96	0
SI_	79	96	0	96	48	3
TAP	79	144	3
STR	79	192	0
SI_	79	192	0	96	48	5
TAP	79	240	5
STR	79	288	0
SI_	79	288	0	96	48	3
TAP	79	336	3
STR	80	0	0
SI_	80	0	0	96	48	5
TAP	80	48	5
STR	80	96	0
SI_	80	96	0	96	48	3
TAP	80	144	3
STR	80	192	0
SI_	80	192	0	96	48	4
SI_	80	192	0	96	48	5
TAP	80	240	5
BRK	80	288	0
STR	81	0	7
SI_	81	0	7	96	48	2
TAP	81	48	2
STR	81	96	7
SI_	81	96	7	96	48	4
TAP	81	144	4
STR	81	192	7
SI_	81	192	7	96	48	2
TAP	81	240	2
STR	81	288	7
SI_	81	288	7	96	48	4
TAP	81	336	4
STR	82	0	7
SI_	82	0	7	96	48	2
TAP	82	48	2
STR	82	96	7
SI_	82	96	7	96	48	4
TAP	82	144	4
STR	82	192	7
SI_	82	192	7	96	48	2
SI_	82	192	7	96	48	3
TAP	82	240	2
BRK	82	288	7
STR	83	0	0
SCL	83	0	0	96	48	5
TAP	83	48	5
STR	83	96	0
SCR	83	96	0	96	48	3
TAP	83	144	3
STR	83	192	0
SCL	83	192	0	96	48	5
TAP	83	240	5
STR	83	288	0
SCR	83	288	0	96	48	3
TAP	83	336	3
STR	84	0	0
SCL	84	0	0	96	48	5
TAP	84	48	5
STR	84	96	0
SCR	84	96	0	96	48	3
TAP	84	144	3
STR	84	192	0
SF_	84	192	0	96	48	4
TAP	84	240	5
BRK	84	288	0
STR	85	0	7
SI_	85	0	7	96	48	3
TAP	85	48	7
STR	85	96	0
SI_	85	96	0	96	48	4
TAP	85	96	7
TAP	85	144	0
TAP	85	192	0
STR	85	192	6
SI_	85	192	6	96	48	3
TAP	85	240	6
TAP	85	288	1
TAP	85	288	6
TAP	85	336	1
BRK	86	0	0
TAP	86	24	7
TAP	86	48	0
TAP	86	72	7
BRK	86	96	1
TAP	86	120	6
TAP	86	144	1
TAP	86	168	6
BRK	86	192	2
TAP	86	216	5
TAP	86	240	2
TAP	86	264	5
STR	86	288	3
SCL	86	288	3	96	96	5
HLD	87	0	4	96
STR	87	144	4
SUR	87	144	4	96	72	2
TAP	87	240	3
TAP	87	288	3
STR	87	336	3
SXR	87	336	3	96	120	7
TAP	88	48	4
TAP	88	96	5
TAP	88	144	6
TAP	88	288	0
STR	88	288	5
SCR	88	288	5	96	48	0
TAP	88	336	5
STR	89	0	2
SCL	89	0	2	96	48	7
TAP	89	48	2
STR	89	96	4
SUR	89	96	4	96	48	1
TAP	89	144	4
STR	89	192	3
SUL	89	192	3	96	48	6
TAP	89	240	3
STR	89	288	4
SCR	89	288	4	96	192	3
SUR	89	288	4	96	192	3
TAP	89	336	4
TAP	90	0	4
STR	90	288	4
SCR	90	288	4	96	96	2
HLD	91	0	3	96
STR	91	144	3
SUL	91	144	3	96	72	5
TAP	91	240	4
TAP	91	288	4
STR	91	336	4
SXL	91	336	4	96	120	0
TAP	92	48	3
TAP	92	96	2
TAP	92	144	1
STR	92	288	2
SCL	92	288	2	96	48	7
TAP	92	288	7
TAP	92	336	2
STR	93	0	5
SCR	93	0	5	96	48	0
TAP	93	48	5
STR	93	96	3
SUL	93	96	3	96	48	6
TAP	93	144	3
STR	93	192	4
SUR	93	192	4	96	48	1
TAP	93	240	4
STR	93	288	3
SCL	93	288	3	96	192	4
SUL	93	288	3	96	192	4
TAP	93	336	3
TAP	94	0	3
BST	94	288	6
SUL	94	288	6	96	72	1
BST	94	288	7
SUL	94	288	7	96	72	2
BRK	95	0	6
BRK	95	0	7
TAP	95	144	0
BST	95	144	1
SUR	95	144	1	96	48	5
TAP	95	240	7
TAP	95	288	7
BST	95	336	6
SUL	95	336	6	96	120	3
TAP	96	48	0
TAP	96	96	1
TAP	96	144	2
TAP	96	288	2
TAP	96	336	2
TAP	97	0	1
TAP	97	0	3
TAP	97	48	2
TAP	97	96	4
TAP	97	96	6
TAP	97	144	5
TAP	97	192	0
TAP	97	192	2
TAP	97	240	1
TAP	97	288	5
TAP	97	288	7
TAP	97	336	6
STR	98	0	3
SXR	98	0	3	96	120	0
STR	98	0	4
SXL	98	0	4	96	120	7
BST	98	288	0
SUR	98	288	0	96	72	5
BST	98	288	1
SUR	98	288	1	96	72	6
BRK	99	0	0
BRK	99	0	1
BST	99	144	6
SUL	99	144	6	96	48	2
TAP	99	144	7
TAP	99	240	0
TAP	99	288	0
BST	99	336	1
SUR	99	336	1	96	120	4
TAP	100	48	7
TAP	100	96	6
TAP	100	144	5
TAP	100	288	5
TAP	100	336	5
TAP	101	0	4
TAP	101	0	6
TAP	101	48	5
TAP	101	96	1
TAP	101	96	3
TAP	101	144	2
TAP	101	192	5
TAP	101	192	7
TAP	101	240	6
TAP	101	288	0
TAP	101	288	2
TAP	101	336	1
TAP	102	0	3
TAP	102	0	4
TAP	102	48	3
TAP	102	64	4
TAP	102	80	3
TAP	102	96	4
TAP	102	144	3
TAP	102	192	4
TAP	102	288	0
TAP	102	288	7
BRK	103	0	1
BRK	103	0	6

T_REC_TAP	607
T_REC_BRK	41
T_REC_XTP	0
T_REC_HLD	15
T_REC_XHO	0
T_REC_STR	107
T_REC_BST	10
T_REC_XST	0
T_REC_TTP	0
T_REC_THO	0
T_REC_SLD	126
T_REC_ALL	906
T_NUM_TAP	714
T_NUM_BRK	51
T_NUM_HLD	15
T_NUM_SLD	126
T_NUM_ALL	906
T_JUDGE_TAP	765
T_JUDGE_HLD	36
T_JUDGE_SLD	126
T_JUDGE_ALL	927
TTM_EACHPAIRS	87
TTM_SCR_TAP	357000
TTM_SCR_BRK	132600
TTM_SCR_HLD	15000
TTM_SCR_SLD	189000
TTM_SCR_ALL	693600
TTM_SCR_S	667850
TTM_SCR_SS	688500
TTM_RAT_ACV	10074

