VERSION	0.00.00	1.03.00
FES_MODE	0
BPM_DEF	180.000	180.000	180.000	180.000
MET_DEF	4	4
RESOLUTION	384
CLK_DEF	384
COMPATIBLE_CODE	MA2

BPM	0	0	180.000
MET	0	0	4	4

TAP	1	0	4
TAP	1	96	3
TAP	1	288	3
TAP	2	96	3
TAP	2	288	3
TAP	3	96	4
TAP	3	288	4
TAP	4	0	5
TAP	4	96	4
TAP	4	192	3
TAP	4	288	2
TAP	5	0	2
TAP	5	96	2
TAP	5	96	3
TAP	5	288	2
TAP	5	288	3
TAP	6	0	4
TAP	6	96	4
TAP	6	96	5
TAP	6	288	4
TAP	6	288	5
TAP	7	0	3
TAP	7	96	1
TAP	7	96	3
TAP	7	192	4
TAP	7	288	4
TAP	7	288	6
TAP	8	0	6
TAP	8	0	7
TAP	8	96	0
TAP	8	96	1
TAP	8	192	0
TAP	8	192	7
BRK	8	288	1
BRK	8	288	6
TAP	9	0	4
TAP	9	0	5
TAP	9	96	6
TAP	9	96	7
TAP	9	192	4
TAP	9	192	5
TAP	9	288	2
TAP	9	288	3
TAP	10	0	0
TAP	10	0	1
STR	10	96	4
SUR	10	96	4	96	96	1
STR	10	96	5
SCR	10	96	5	96	96	0
TAP	11	0	2
TAP	11	0	3
TAP	11	96	0
TAP	11	96	1
TAP	11	192	2
TAP	11	192	3
TAP	11	288	4
TAP	11	288	5
TAP	12	0	6
TAP	12	0	7
TAP	12	96	2
TAP	12	96	3
TAP	12	192	6
TAP	12	192	7
TAP	12	240	6
TAP	12	240	7
TAP	12	288	0
TAP	12	288	5
TAP	13	0	3
TAP	13	0	4
TAP	13	96	0
TAP	13	96	1
TAP	13	192	3
TAP	13	192	4
TAP	13	288	6
TAP	13	288	7
BRK	13	336	6
BRK	13	336	7
STR	14	48	0
SUR	14	48	0	96	144	5
STR	14	48	1
SCR	14	48	1	96	144	5
TAP	14	96	0
TAP	14	96	1
TAP	15	0	3
TAP	15	0	4
STR	15	96	1
SI_	15	96	1	96	96	5
STR	15	96	6
SI_	15	96	6	96	96	2
TAP	16	0	0
TAP	16	0	7
STR	16	96	3
SCR	16	96	3	96	192	2
SUR	16	96	3	96	192	2
TAP	16	96	4
HLD	17	96	1	96
HLD	17	192	2	96
TAP	17	288	3
HLD	18	0	4	192
STR	18	0	5
SI_	18	0	5	96	96	0
STR	19	0	2
SI_	19	0	2	96	96	7
HLD	19	0	3	192
HLD	20	0	4	192
STR	20	0	5
SI_	20	0	5	96	96	0
STR	21	0	2
SI_	21	0	2	96	96	7
HLD	21	0	3	192
HLD	22	0	4	192
STR	22	0	5
SCR	22	0	5	96	144	0
STR	23	0	2
SCL	23	0	2	96	144	7
HLD	23	0	3	192
STR	24	0	0
SV_	24	0	0	96	144	3
STR	24	0	6
SV_	24	0	6	96	144	3
STR	25	0	1
SI_	25	0	1	96	144	5
STR	25	0	2
SI_	25	0	2	96	144	4
TAP	26	0	5
TAP	26	96	4
TAP	26	192	2
TAP	26	192	3
TAP	26	288	2
TAP	26	336	2
TAP	27	0	3
HLD	27	96	5	96
TAP	27	192	4
HLD	27	288	2	96
TAP	28	0	3
TAP	28	96	4
TAP	28	192	5
TAP	28	288	6
TAP	28	336	6
TAP	29	0	7
HLD	29	96	1	96
TAP	29	192	0
HLD	29	288	6	96
TAP	30	0	7
TAP	30	96	1
TAP	30	192	2
STR	30	288	3
SI_	30	288	3	96	48	1
STR	30	288	4
SI_	30	288	4	96	48	6
TAP	31	96	0
TAP	31	96	7
TAP	31	192	1
TAP	31	192	6
TAP	31	288	2
TAP	31	288	5
TAP	32	0	3
STR	32	0	4
SCR	32	0	4	96	672	3
HLD	35	192	3	96
HLD	35	192	4	96
STR	36	0	1
SI_	36	0	1	96	48	6
STR	36	96	2
SI_	36	96	2	96	48	5
STR	36	192	1
SI_	36	192	1	96	48	6
STR	36	288	2
SI_	36	288	2	96	48	5
STR	37	0	1
SI_	37	0	1	96	48	6
STR	37	96	2
SI_	37	96	2	96	48	5
STR	37	192	1
SI_	37	192	1	96	48	6
STR	37	288	2
SI_	37	288	2	96	48	5
STR	38	0	1
SI_	38	0	1	96	48	6
STR	38	96	2
SI_	38	96	2	96	48	5
STR	38	192	1
SI_	38	192	1	96	48	6
STR	38	288	2
SF_	38	288	2	96	144	6
TAP	39	288	2
TAP	39	288	3
STR	40	0	2
SI_	40	0	2	96	48	0
STR	40	0	3
SI_	40	0	3	96	48	7
STR	40	192	2
SI_	40	192	2	96	48	6
STR	40	192	3
SI_	40	192	3	96	48	5
STR	41	0	2
SXR	41	0	2	96	192	7
STR	41	0	3
SXL	41	0	3	96	192	6
TAP	42	0	0
TAP	42	0	1
TAP	42	96	4
TAP	42	96	5
TAP	42	192	6
TAP	42	192	7
STR	42	288	2
SI_	42	288	2	96	72	7
STR	42	288	3
SI_	42	288	3	96	72	6
BRK	43	192	0
BRK	43	192	5
TAP	43	288	4
TAP	43	288	5
STR	44	0	4
SI_	44	0	4	96	48	0
STR	44	0	5
SI_	44	0	5	96	48	7
STR	44	192	4
SI_	44	192	4	96	48	2
STR	44	192	5
SI_	44	192	5	96	48	1
STR	45	0	4
SXR	45	0	4	96	192	1
STR	45	0	5
SXL	45	0	5	96	192	0
TAP	46	0	6
TAP	46	0	7
TAP	46	96	2
TAP	46	96	3
TAP	46	192	0
TAP	46	192	1
STR	46	288	4
SI_	46	288	4	96	72	1
STR	46	288	5
SI_	46	288	5	96	72	0
BRK	47	192	2
BRK	47	192	7
TAP	48	0	2
TAP	48	0	3
TAP	48	96	0
TAP	48	96	1
TAP	48	192	2
BRK	48	192	4
TAP	48	288	2
BRK	48	288	4
TAP	49	0	3
BRK	49	0	4
STR	49	96	2
SCL	49	96	2	96	96	7
BRK	49	96	4
TAP	50	0	6
TAP	50	0	7
STR	50	96	4
SI_	50	96	4	96	48	0
STR	50	96	5
SI_	50	96	5	96	48	0
HLD	51	0	0	288
TAP	51	0	7
TAP	51	96	6
TAP	51	192	5
TAP	51	288	4
STR	52	0	0
SLR	52	0	0	96	144	4
STR	52	0	4
SLR	52	0	4	96	144	0
STR	53	0	7
SI_	53	0	7	96	48	3
STR	53	192	0
SI_	53	192	0	96	48	2
STR	53	192	6
SI_	53	192	6	96	48	4
TAP	54	0	3
TAP	54	48	4
TAP	54	96	2
TAP	54	144	5
TAP	54	192	2
TAP	54	240	5
TAP	54	288	3
TAP	54	336	4
STR	55	0	3
SCL	55	0	3	96	96	0
STR	55	0	4
SCR	55	0	4	96	96	7
BRK	55	288	0
BRK	55	288	7
HLD	56	96	6	96
HLD	56	192	5	96
TAP	56	288	4
HLD	57	0	2	192
STR	57	0	3
SCR	57	0	3	96	144	6
STR	58	0	4
SCL	58	0	4	96	144	1
HLD	58	0	5	192
HLD	59	0	2	192
STR	59	0	3
SCR	59	0	3	96	144	6
STR	60	0	4
SSR	60	0	4	96	192	0
HLD	60	0	5	192
STR	61	0	0
SCL	61	0	0	96	144	5
HLD	61	0	1	192
HLD	62	0	6	192
STR	62	0	7
SCR	62	0	7	96	144	2
STR	63	0	0
SCL	63	0	0	96	144	5
HLD	63	0	1	192
HLD	64	0	6	192
STR	64	0	7
SCR	64	0	7	96	144	2
HLD	65	0	0	192
HLD	65	0	7	192
TAP	65	320	7
TAP	65	352	7
TAP	66	0	7
TAP	66	32	0
TAP	66	64	0
TAP	66	96	0
TAP	66	128	7
BRK	67	288	2
BRK	67	336	2
BRK	68	0	3
BRK	68	96	5
BRK	68	192	4
BRK	68	192	5
BRK	68	288	3
BRK	68	288	4
BRK	69	0	3
BRK	69	0	4
BST	69	288	0
SI_	69	288	0	96	48	4
BRK	69	288	7
TAP	70	96	1
TAP	70	96	6
TAP	70	192	2
TAP	70	192	5
TAP	70	288	3
TAP	70	288	4
TAP	71	0	2
TAP	71	0	3
TAP	71	48	2
TAP	71	48	3
TAP	71	96	2
TAP	71	96	3
TAP	71	144	2
TAP	71	144	3
TAP	71	192	2
TAP	71	192	3
TAP	71	240	2
TAP	71	240	3
TAP	71	288	2
TAP	71	288	3
TAP	71	336	2
TAP	71	336	3
TAP	72	48	4
TAP	72	48	5
TAP	72	96	4
TAP	72	96	5
TAP	72	144	4
TAP	72	144	5
TAP	72	192	4
TAP	72	192	5
TAP	72	240	4
TAP	72	240	5
TAP	72	288	4
TAP	72	288	5
TAP	72	336	4
TAP	72	336	5
TAP	73	48	0
TAP	73	48	1
TAP	73	96	0
TAP	73	96	1
TAP	73	144	0
TAP	73	144	1
TAP	73	192	0
TAP	73	192	1
TAP	73	240	0
TAP	73	240	1
TAP	73	288	0
TAP	73	288	1
TAP	73	336	0
TAP	73	336	1
TAP	74	48	0
TAP	74	48	7
TAP	74	96	0
TAP	74	96	7
TAP	74	144	0
TAP	74	144	7
TAP	74	192	0
TAP	74	192	7
TAP	74	240	0
TAP	74	240	7
TAP	74	288	0
TAP	74	288	7
TAP	75	0	6
TAP	75	0	7
TAP	75	48	6
TAP	75	48	7
TAP	75	96	6
TAP	75	96	7
TAP	75	144	6
TAP	75	144	7
TAP	75	192	6
TAP	75	192	7
TAP	75	240	6
TAP	75	240	7
TAP	75	288	6
TAP	75	288	7
TAP	75	336	6
TAP	75	336	7
TAP	76	48	0
TAP	76	48	1
TAP	76	96	0
TAP	76	96	1
TAP	76	144	0
TAP	76	144	1
TAP	76	192	0
TAP	76	192	1
TAP	76	240	0
TAP	76	240	1
TAP	76	288	0
TAP	76	288	1
TAP	76	336	0
TAP	76	336	1
TAP	77	48	4
TAP	77	48	5
TAP	77	96	4
TAP	77	96	5
TAP	77	144	4
TAP	77	144	5
TAP	77	192	4
TAP	77	192	5
TAP	77	240	4
TAP	77	240	5
TAP	77	288	4
TAP	77	288	5
TAP	77	336	4
TAP	77	336	5
TAP	78	48	3
TAP	78	48	4
TAP	78	96	3
TAP	78	96	4
TAP	78	144	3
TAP	78	144	4
TAP	78	192	3
TAP	78	192	4
TAP	78	240	3
TAP	78	240	4
TAP	78	288	3
TAP	78	288	4
TAP	79	0	1
TAP	79	0	3
TAP	79	48	1
TAP	79	48	3
TAP	79	96	1
TAP	79	96	3
TAP	79	144	1
TAP	79	144	3
TAP	79	240	4
TAP	79	240	6
TAP	79	336	1
TAP	79	336	3
TAP	80	48	4
TAP	80	48	6
TAP	80	144	1
TAP	80	144	3
TAP	80	192	1
TAP	80	192	3
TAP	80	240	1
TAP	80	240	3
TAP	80	288	1
TAP	80	288	3
TAP	81	0	4
TAP	81	0	6
TAP	81	48	4
TAP	81	48	6
TAP	81	96	4
TAP	81	96	6
TAP	81	144	4
TAP	81	144	6
TAP	81	240	1
TAP	81	240	3
TAP	81	336	4
TAP	81	336	6
TAP	82	48	1
TAP	82	48	3
TAP	82	144	4
TAP	82	144	6
TAP	82	192	4
TAP	82	192	6
TAP	82	240	4
TAP	82	240	6
TAP	82	288	4
TAP	82	288	6
TAP	83	0	0
TAP	83	0	2
TAP	83	48	0
TAP	83	48	2
TAP	83	96	0
TAP	83	96	2
TAP	83	144	0
TAP	83	144	2
TAP	83	240	5
TAP	83	240	7
TAP	83	336	0
TAP	83	336	2
TAP	84	48	5
TAP	84	48	7
TAP	84	144	0
TAP	84	144	2
TAP	84	192	0
TAP	84	192	2
TAP	84	240	0
TAP	84	240	2
TAP	84	288	0
TAP	84	288	2
TAP	85	0	0
TAP	85	0	7
TAP	85	48	0
TAP	85	48	7
TAP	85	96	0
TAP	85	96	7
TAP	85	144	0
TAP	85	144	7
TAP	85	192	0
TAP	85	192	7
TAP	85	240	0
TAP	85	240	7
TAP	85	288	0
TAP	85	288	7
STR	85	336	0
SI_	85	336	0	96	96	3
STR	85	336	7
SI_	85	336	7	96	96	4
TAP	86	0	0
TAP	86	0	7
TAP	86	288	4
TAP	86	288	5
STR	87	0	4
SI_	87	0	4	96	48	2
STR	87	0	5
SI_	87	0	5	96	48	1
STR	87	192	4
SI_	87	192	4	96	48	0
STR	87	192	5
SI_	87	192	5	96	48	7
STR	88	0	4
SXR	88	0	4	96	192	1
STR	88	0	5
SXL	88	0	5	96	192	0
TAP	89	0	2
TAP	89	0	3
TAP	89	96	6
TAP	89	96	7
TAP	89	192	4
TAP	89	192	5
STR	89	288	0
SI_	89	288	0	96	72	5
STR	89	288	1
SI_	89	288	1	96	72	4
BRK	90	192	3
BRK	90	192	6
TAP	90	288	2
TAP	90	288	3
STR	91	0	2
SI_	91	0	2	96	48	0
STR	91	0	3
SI_	91	0	3	96	48	7
STR	91	192	2
SI_	91	192	2	96	48	6
STR	91	192	3
SI_	91	192	3	96	48	5
STR	92	0	2
SXR	92	0	2	96	192	7
STR	92	0	3
SXL	92	0	3	96	192	6
TAP	93	0	4
TAP	93	0	5
TAP	93	96	0
TAP	93	96	1
TAP	93	192	2
TAP	93	192	3
STR	93	288	6
SI_	93	288	6	96	72	3
STR	93	288	7
SI_	93	288	7	96	72	2
BRK	94	192	1
BRK	94	192	4
TAP	94	288	5
TAP	94	288	6
STR	95	0	5
SI_	95	0	5	96	48	3
STR	95	0	6
SI_	95	0	6	96	48	2
STR	95	192	5
SI_	95	192	5	96	48	1
STR	95	192	6
SI_	95	192	6	96	48	0
STR	96	0	5
SXR	96	0	5	96	192	2
STR	96	0	6
SXL	96	0	6	96	192	1
TAP	97	0	2
TAP	97	0	3
TAP	97	96	0
TAP	97	96	5
TAP	97	192	4
TAP	97	192	5
STR	97	288	2
SLR	97	288	2	96	96	1
STR	97	288	7
SLL	97	288	7	96	96	0
BRK	98	192	2
BRK	98	192	7
TAP	98	288	1
TAP	98	288	2
STR	99	0	1
SI_	99	0	1	96	48	5
STR	99	0	2
SI_	99	0	2	96	48	4
STR	99	192	1
SI_	99	192	1	96	48	7
STR	99	192	2
SI_	99	192	2	96	48	6
STR	100	0	1
SXR	100	0	1	96	192	6
STR	100	0	2
SXL	100	0	2	96	192	5
TAP	101	0	4
TAP	101	0	5
TAP	101	96	2
TAP	101	96	7
TAP	101	192	2
TAP	101	192	3
STR	101	288	0
SLR	101	288	0	96	96	7
STR	101	288	5
SLL	101	288	5	96	96	6
TAP	102	192	0
TAP	102	192	7
BRK	102	288	1
BRK	102	288	6
BRK	103	0	0
BRK	103	0	7

T_REC_TAP	381
T_REC_BRK	35
T_REC_XTP	0
T_REC_HLD	27
T_REC_XHO	0
T_REC_STR	100
T_REC_BST	1
T_REC_XST	0
T_REC_TTP	0
T_REC_THO	0
T_REC_SLD	102
T_REC_ALL	646
T_NUM_TAP	481
T_NUM_BRK	36
T_NUM_HLD	27
T_NUM_SLD	102
T_NUM_ALL	646
T_JUDGE_TAP	517
T_JUDGE_HLD	90
T_JUDGE_SLD	102
T_JUDGE_ALL	709
TTM_EACHPAIRS	234
TTM_SCR_TAP	240500
TTM_SCR_BRK	93600
TTM_SCR_HLD	27000
TTM_SCR_SLD	153000
TTM_SCR_ALL	514100
TTM_SCR_S	495200
TTM_SCR_SS	510500
TTM_RAT_ACV	10070

