VERSION	0.00.00	1.03.00
FES_MODE	0
BPM_DEF	180.000	180.000	180.000	180.000
MET_DEF	4	4
RESOLUTION	384
CLK_DEF	384
COMPATIBLE_CODE	MA2

BPM	0	0	180.000
MET	0	0	4	4

TAP	5	0	5
TAP	5	96	5
TAP	5	192	4
TAP	5	192	5
TAP	6	0	2
TAP	6	96	2
TAP	6	192	2
TAP	6	192	3
TAP	7	0	4
TAP	7	96	4
TAP	7	192	3
TAP	7	288	3
TAP	8	0	4
TAP	8	96	3
TAP	8	192	2
TAP	8	192	5
TAP	9	0	1
TAP	9	96	0
TAP	9	96	1
TAP	9	192	6
TAP	9	288	6
TAP	9	288	7
TAP	10	0	0
TAP	10	96	7
TAP	10	192	0
TAP	10	192	7
TAP	11	0	5
TAP	11	96	4
TAP	11	96	5
TAP	11	192	2
TAP	11	288	2
TAP	11	288	3
TAP	12	0	4
TAP	12	96	3
TAP	12	192	3
TAP	12	192	4
TAP	12	288	2
TAP	12	288	5
TAP	13	0	1
TAP	13	96	0
TAP	13	96	1
TAP	13	192	6
TAP	13	288	6
TAP	13	288	7
TAP	14	0	0
TAP	14	0	7
TAP	14	96	0
TAP	14	96	7
BRK	14	192	0
BRK	14	192	7
TAP	15	0	5
TAP	15	96	4
TAP	15	96	5
TAP	15	192	2
TAP	15	288	2
TAP	15	288	3
TAP	16	0	3
TAP	16	0	4
TAP	16	96	3
STR	16	96	4
SF_	16	96	4	96	192	0
HLD	18	0	5	192
TAP	18	192	4
HLD	19	0	2	192
TAP	19	192	3
HLD	20	0	5	192
TAP	20	192	4
HLD	21	0	2	192
TAP	21	192	3
HLD	22	0	6	192
TAP	22	192	7
HLD	23	0	1	192
TAP	23	192	0
HLD	24	0	7	192
TAP	24	192	0
TAP	25	0	1
TAP	25	0	6
TAP	25	192	2
TAP	25	192	5
HLD	26	0	3	192
HLD	26	0	4	192
TAP	27	0	2
TAP	27	96	2
TAP	27	192	2
TAP	27	192	3
TAP	28	0	5
TAP	28	96	5
TAP	28	192	4
TAP	28	192	5
TAP	29	0	2
TAP	29	96	2
TAP	29	192	2
TAP	29	192	3
TAP	30	0	4
TAP	30	96	4
TAP	30	192	3
TAP	30	288	3
TAP	31	0	3
TAP	31	0	4
TAP	31	192	3
TAP	31	192	4
STR	32	0	3
SI_	32	0	3	96	384	6
STR	32	0	4
SI_	32	0	4	96	384	1
TAP	35	192	3
TAP	35	192	4
STR	36	0	3
SXR	36	0	3	96	672	0
STR	36	0	4
SXL	36	0	4	96	672	7
TAP	39	0	0
TAP	39	0	7
TAP	39	96	0
TAP	39	96	7
BRK	39	192	1
BRK	39	192	6
HLD	40	0	2	96
TAP	40	96	3
HLD	40	192	5	96
TAP	40	288	4
HLD	41	0	2	96
TAP	41	96	3
TAP	41	192	1
TAP	41	192	4
TAP	42	0	6
TAP	42	0	7
TAP	42	96	6
TAP	42	96	7
TAP	42	192	0
TAP	42	192	1
STR	42	288	0
SI_	42	288	0	96	192	5
STR	42	288	1
SI_	42	288	1	96	192	4
HLD	44	0	5	96
TAP	44	96	4
HLD	44	192	2	96
TAP	44	288	3
HLD	45	0	5	96
TAP	45	96	4
TAP	45	192	3
TAP	45	192	6
TAP	46	0	0
TAP	46	0	1
TAP	46	96	0
TAP	46	96	1
TAP	46	192	6
TAP	46	192	7
STR	46	288	6
SI_	46	288	6	96	192	3
STR	46	288	7
SI_	46	288	7	96	192	2
BRK	48	0	4
BRK	48	96	4
BRK	48	192	4
BRK	48	288	4
BRK	49	0	4
BRK	49	96	4
BRK	49	192	4
BRK	49	288	4
TAP	50	0	3
TAP	50	0	4
TAP	50	96	2
TAP	50	96	5
BRK	50	192	1
BRK	50	192	6
STR	51	0	0
SI_	51	0	0	96	192	3
STR	51	0	7
SI_	51	0	7	96	192	4
TAP	52	0	2
TAP	52	96	2
TAP	52	96	3
TAP	52	192	5
TAP	52	288	4
TAP	52	288	5
TAP	53	0	3
TAP	53	0	4
TAP	53	96	3
TAP	53	96	4
TAP	53	192	2
TAP	53	192	5
TAP	53	288	2
TAP	53	288	5
TAP	54	0	6
TAP	54	96	6
TAP	54	96	7
TAP	54	192	1
TAP	54	288	0
TAP	54	288	1
TAP	55	0	0
TAP	55	0	7
TAP	55	96	1
TAP	55	96	6
TAP	55	192	2
TAP	55	192	5
TAP	55	288	3
TAP	55	288	4
HLD	57	0	6	192
TAP	57	192	7
HLD	58	0	1	192
TAP	58	192	0
HLD	59	0	6	192
TAP	59	192	7
HLD	60	0	1	192
TAP	60	192	0
HLD	61	0	5	192
TAP	61	192	4
HLD	62	0	2	192
TAP	62	192	3
HLD	63	0	4	192
TAP	63	192	3
TAP	64	0	2
TAP	64	0	5
TAP	64	192	1
TAP	64	192	6
TAP	65	0	0
HLD	65	0	7	1152
HLD	68	0	6	384
HLD	69	0	5	384
BRK	70	0	4
TAP	71	0	0
TAP	71	96	0
TAP	71	192	1
TAP	71	288	1
TAP	72	0	2
TAP	72	96	2
TAP	72	192	3
TAP	72	288	3
TAP	73	0	4
TAP	73	96	4
TAP	73	192	5
TAP	73	288	5
TAP	74	0	6
TAP	74	96	7
TAP	74	192	0
TAP	74	192	6
TAP	75	0	7
TAP	75	96	7
TAP	75	192	6
TAP	75	288	6
TAP	76	0	5
TAP	76	96	5
TAP	76	192	4
TAP	76	288	4
TAP	77	0	3
TAP	77	96	3
TAP	77	192	2
TAP	77	288	2
TAP	78	0	0
TAP	78	0	1
TAP	78	96	0
TAP	78	96	1
TAP	78	192	2
TAP	78	192	7
TAP	79	0	0
TAP	79	96	1
TAP	79	192	2
TAP	79	288	3
TAP	80	0	4
TAP	80	96	5
TAP	80	192	6
TAP	80	288	7
TAP	81	0	0
TAP	81	0	6
TAP	81	96	0
TAP	81	96	6
TAP	81	192	1
TAP	81	192	7
TAP	81	288	1
TAP	81	288	7
TAP	82	0	2
TAP	82	0	3
TAP	82	96	4
TAP	82	96	5
TAP	82	192	3
TAP	82	192	6
TAP	83	0	7
TAP	83	96	6
TAP	83	192	5
TAP	83	288	4
TAP	84	0	3
TAP	84	96	2
TAP	84	192	1
TAP	84	288	0
TAP	85	0	1
TAP	85	0	7
TAP	85	96	1
TAP	85	96	7
TAP	85	192	0
TAP	85	192	6
TAP	85	288	0
TAP	85	288	6
TAP	86	0	4
TAP	86	0	5
TAP	86	96	2
TAP	86	96	3
BRK	86	192	1
BRK	86	192	6
HLD	87	0	2	96
TAP	87	96	3
HLD	87	192	5	96
TAP	87	288	4
HLD	88	0	2	96
TAP	88	96	3
TAP	88	192	1
TAP	88	192	4
TAP	89	0	6
TAP	89	0	7
TAP	89	96	6
TAP	89	96	7
TAP	89	192	0
TAP	89	192	1
STR	89	288	0
SI_	89	288	0	96	192	5
STR	89	288	1
SI_	89	288	1	96	192	4
HLD	91	0	5	96
TAP	91	96	4
HLD	91	192	2	96
TAP	91	288	3
HLD	92	0	5	96
TAP	92	96	4
TAP	92	192	3
TAP	92	192	6
TAP	93	0	0
TAP	93	0	1
TAP	93	96	0
TAP	93	96	1
TAP	93	192	6
TAP	93	192	7
STR	93	288	6
SI_	93	288	6	96	192	3
STR	93	288	7
SI_	93	288	7	96	192	2
HLD	95	0	1	96
TAP	95	96	0
HLD	95	192	6	96
TAP	95	288	7
TAP	96	0	0
TAP	96	0	5
TAP	96	96	1
TAP	96	96	4
TAP	96	192	2
TAP	96	192	3
TAP	97	0	4
TAP	97	0	5
TAP	97	96	4
TAP	97	96	5
TAP	97	192	2
TAP	97	192	3
STR	97	288	2
SCL	97	288	2	96	192	7
STR	97	288	3
SCR	97	288	3	96	192	6
HLD	99	0	6	96
TAP	99	96	7
HLD	99	192	1	96
TAP	99	288	0
TAP	100	0	2
TAP	100	0	7
TAP	100	96	3
TAP	100	96	6
TAP	100	192	4
TAP	100	192	5
TAP	101	0	2
TAP	101	0	3
TAP	101	96	2
TAP	101	96	3
TAP	101	192	4
TAP	101	192	5
STR	101	288	4
SF_	101	288	4	96	192	0
TAP	101	288	5
BRK	103	0	0

T_REC_TAP	287
T_REC_BRK	18
T_REC_XTP	0
T_REC_HLD	35
T_REC_XHO	0
T_REC_STR	18
T_REC_BST	0
T_REC_XST	0
T_REC_TTP	0
T_REC_THO	0
T_REC_SLD	18
T_REC_ALL	376
T_NUM_TAP	305
T_NUM_BRK	18
T_NUM_HLD	35
T_NUM_SLD	18
T_NUM_ALL	376
T_JUDGE_TAP	323
T_JUDGE_HLD	136
T_JUDGE_SLD	18
T_JUDGE_ALL	477
TTM_EACHPAIRS	104
TTM_SCR_TAP	152500
TTM_SCR_BRK	46800
TTM_SCR_HLD	35000
TTM_SCR_SLD	27000
TTM_SCR_ALL	261300
TTM_SCR_S	251750
TTM_SCR_SS	259500
TTM_RAT_ACV	10069

