VERSION	0.00.00	1.03.00
FES_MODE	0
BPM_DEF	180.000	180.000	180.000	180.000
MET_DEF	4	4
RESOLUTION	384
CLK_DEF	384
COMPATIBLE_CODE	MA2

BPM	0	0	180.000
MET	0	0	4	4

TAP	5	0	2
TAP	5	192	2
TAP	6	0	3
TAP	6	192	3
TAP	7	0	4
TAP	7	192	4
TAP	8	0	5
TAP	8	192	5
TAP	9	0	6
TAP	9	96	6
TAP	9	192	6
TAP	10	0	5
TAP	10	96	5
TAP	10	192	5
TAP	11	0	4
TAP	11	96	4
TAP	11	192	4
TAP	12	0	3
TAP	12	96	3
TAP	12	192	3
TAP	12	192	4
TAP	13	0	2
TAP	13	96	2
TAP	13	192	2
TAP	14	0	1
TAP	14	96	1
TAP	14	192	1
TAP	15	0	0
TAP	15	96	0
TAP	15	192	0
TAP	16	0	7
TAP	16	96	0
BRK	16	192	7
HLD	18	0	6	384
HLD	20	0	5	384
HLD	22	0	4	384
HLD	24	0	3	384
TAP	26	0	2
TAP	26	96	2
TAP	26	192	2
TAP	27	0	1
TAP	27	96	1
TAP	27	192	1
TAP	28	0	0
TAP	28	96	0
TAP	28	192	0
TAP	29	0	7
TAP	29	96	7
TAP	29	192	7
TAP	30	0	0
TAP	30	96	0
TAP	30	192	0
TAP	31	0	0
TAP	31	0	7
TAP	31	96	0
TAP	31	96	7
TAP	31	192	0
TAP	31	192	7
HLD	32	0	1	1152
HLD	32	0	6	1152
HLD	36	0	0	1152
HLD	36	0	7	1152
TAP	40	0	6
TAP	40	96	6
TAP	40	192	6
TAP	41	0	5
TAP	41	96	5
TAP	41	192	5
TAP	42	0	4
TAP	42	96	4
TAP	42	192	4
TAP	43	0	3
TAP	43	96	3
TAP	43	192	3
TAP	43	192	4
TAP	44	0	2
TAP	44	96	2
TAP	44	192	2
TAP	45	0	1
TAP	45	96	1
TAP	45	192	1
TAP	46	0	0
TAP	46	96	0
TAP	46	192	0
TAP	47	0	7
TAP	47	96	7
TAP	47	192	0
TAP	47	192	7
TAP	48	0	1
TAP	48	192	1
TAP	49	0	2
TAP	49	96	2
TAP	49	192	2
TAP	49	192	3
TAP	50	0	3
TAP	50	192	3
TAP	51	0	4
TAP	51	96	4
TAP	51	192	3
TAP	51	192	4
TAP	52	0	5
TAP	52	192	5
TAP	53	0	6
TAP	53	96	6
TAP	53	192	6
TAP	53	192	7
TAP	54	0	7
TAP	54	192	7
TAP	55	0	0
TAP	55	96	0
TAP	55	192	0
TAP	55	192	7
STR	57	0	7
SI_	57	0	7	96	288	3
STR	59	0	0
SI_	59	0	0	96	288	4
STR	61	0	7
SI_	61	0	7	96	288	2
STR	63	0	0
SI_	63	0	0	96	288	5
TAP	65	0	7
TAP	65	96	7
TAP	65	192	7
TAP	66	0	6
TAP	66	96	6
TAP	66	192	6
TAP	67	0	5
TAP	67	96	5
TAP	67	192	5
TAP	68	0	4
TAP	68	96	4
TAP	68	192	4
TAP	69	0	3
TAP	69	96	3
TAP	69	192	3
BRK	70	0	2
HLD	71	0	0	384
HLD	71	0	1	384
HLD	73	0	2	384
HLD	73	0	3	384
HLD	75	0	4	384
HLD	75	0	5	384
HLD	77	0	6	384
HLD	77	0	7	384
STR	79	0	1
SI_	79	0	1	96	288	5
STR	81	0	6
SI_	81	0	6	96	288	2
STR	83	0	1
SI_	83	0	1	96	288	4
STR	85	0	6
SI_	85	0	6	96	288	3
TAP	87	0	1
TAP	87	96	1
TAP	87	192	1
TAP	88	0	2
TAP	88	96	2
TAP	88	192	2
TAP	89	0	3
TAP	89	96	3
TAP	89	192	3
TAP	90	0	3
TAP	90	0	4
TAP	90	96	3
TAP	90	96	4
TAP	90	192	3
TAP	90	192	4
TAP	91	0	5
TAP	91	96	5
TAP	91	192	5
TAP	92	0	6
TAP	92	96	6
TAP	92	192	6
TAP	93	0	7
TAP	93	96	7
TAP	93	192	7
TAP	94	0	0
TAP	94	0	7
TAP	94	96	0
TAP	94	96	7
TAP	94	192	0
TAP	94	192	7
TAP	95	0	6
TAP	95	96	6
TAP	95	192	5
TAP	95	288	5
TAP	96	0	4
TAP	96	96	4
TAP	96	192	3
TAP	96	192	4
TAP	97	0	3
TAP	97	96	3
TAP	97	192	2
TAP	97	288	2
TAP	98	0	1
TAP	98	96	1
TAP	98	192	0
TAP	98	192	1
TAP	99	0	6
TAP	99	96	6
TAP	99	192	7
TAP	99	288	7
TAP	100	0	0
TAP	100	0	1
TAP	100	96	0
TAP	100	96	1
TAP	100	192	0
TAP	100	192	1
TAP	101	0	1
TAP	101	96	1
TAP	101	192	0
TAP	101	288	0
TAP	102	0	6
TAP	102	0	7
TAP	102	96	6
TAP	102	96	7
TAP	102	192	6
TAP	102	192	7
BRK	103	0	0
BRK	103	0	7

T_REC_TAP	184
T_REC_BRK	4
T_REC_XTP	0
T_REC_HLD	16
T_REC_XHO	0
T_REC_STR	8
T_REC_BST	0
T_REC_XST	0
T_REC_TTP	0
T_REC_THO	0
T_REC_SLD	8
T_REC_ALL	220
T_NUM_TAP	192
T_NUM_BRK	4
T_NUM_HLD	16
T_NUM_SLD	8
T_NUM_ALL	220
T_JUDGE_TAP	196
T_JUDGE_HLD	192
T_JUDGE_SLD	8
T_JUDGE_ALL	396
TTM_EACHPAIRS	31
TTM_SCR_TAP	96000
TTM_SCR_BRK	10400
TTM_SCR_HLD	16000
TTM_SCR_SLD	12000
TTM_SCR_ALL	134400
TTM_SCR_S	130000
TTM_SCR_SS	134000
TTM_RAT_ACV	10029

