VERSION	0.00.00	1.03.00
FES_MODE	0
BPM_DEF	138.000	138.000	138.000	138.000
MET_DEF	4	4
RESOLUTION	384
CLK_DEF	384
COMPATIBLE_CODE	MA2

BPM	0	0	138.000
MET	0	0	4	4

TAP	1	96	7
TAP	1	192	0
STR	1	288	1
SCL	1	288	1	96	240	6
STR	2	96	5
SCL	2	96	5	96	240	2
STR	2	288	1
SCL	2	288	1	96	240	6
STR	3	96	5
SCL	3	96	5	96	240	2
STR	3	288	1
SCL	3	288	1	96	240	6
STR	4	96	5
SCL	4	96	5	96	240	2
STR	4	288	1
SXR	4	288	1	96	192	6
STR	5	288	6
SCR	5	288	6	96	240	1
STR	6	96	2
SCR	6	96	2	96	240	5
STR	6	288	6
SCR	6	288	6	96	240	1
STR	7	96	2
SCR	7	96	2	96	240	5
STR	7	288	6
SCR	7	288	6	96	240	1
TAP	8	96	2
TAP	8	192	4
STR	8	288	7
SUL	8	288	7	96	144	1
STR	9	192	7
SI_	9	192	7	96	48	4
STR	10	0	1
SXL	10	0	1	96	192	5
STR	10	0	6
SLR	10	0	6	96	192	5
TAP	10	336	0
TAP	10	336	7
BRK	11	0	0
BRK	11	0	7
TAP	11	96	2
STR	11	96	3
SI_	11	96	3	96	48	0
STR	11	288	4
SI_	11	288	4	96	48	7
TAP	11	288	5
TAP	12	96	2
STR	12	96	3
SI_	12	96	3	96	48	0
TAP	12	288	4
HLD	12	288	5	96
HLD	13	0	7	96
HLD	13	96	0	96
HLD	13	192	2	96
HLD	13	288	0	96
HLD	14	0	7	96
HLD	14	96	5	96
TAP	14	192	4
TAP	14	288	2
STR	14	288	3
SI_	14	288	3	96	48	0
TAP	15	0	1
STR	15	96	4
SI_	15	96	4	96	48	7
TAP	15	96	5
TAP	15	192	6
TAP	15	288	2
STR	15	288	3
SI_	15	288	3	96	48	0
TAP	16	0	1
STR	16	96	4
SI_	16	96	4	96	48	7
TAP	16	96	5
TAP	16	192	6
HLD	16	288	2	96
TAP	16	288	3
HLD	17	0	0	96
HLD	17	96	7	96
HLD	17	192	5	96
HLD	17	288	7	96
HLD	18	0	0	96
HLD	18	96	2	96
TAP	18	192	3
TAP	18	288	3
STR	18	288	4
SCR	18	288	4	96	192	3
HLD	19	0	0	192
STR	19	288	3
SCL	19	288	3	96	192	4
TAP	19	288	4
HLD	20	0	7	192
TAP	20	288	3
STR	20	288	4
SCR	20	288	4	96	192	3
HLD	21	0	0	192
TAP	21	288	0
TAP	21	288	7
TAP	22	0	1
TAP	22	0	3
TAP	22	72	3
TAP	22	72	4
TAP	22	144	4
TAP	22	144	6
TAP	22	216	0
TAP	22	216	7
STR	22	288	0
SCL	22	288	0	96	96	5
STR	22	288	2
SV_	22	288	2	96	96	5
HLD	23	192	4	48
HLD	23	192	5	48
HLD	23	288	4	48
HLD	23	288	5	48
HLD	24	0	2	48
HLD	24	0	3	48
HLD	24	96	2	48
HLD	24	96	3	48
HLD	24	192	4	96
TAP	24	192	5
BRK	24	288	7
BST	25	0	7
SI_	25	0	7	96	48	4
SSR	25	0	7	96	48	3
BST	25	192	7
SI_	25	192	7	96	48	4
SSR	25	192	7	96	48	3
BST	26	0	7
SI_	26	0	7	96	48	4
SSR	26	0	7	96	48	3
BST	26	192	7
SI_	26	192	7	96	48	4
SSR	26	192	7	96	48	3
HLD	27	0	0	192
HLD	27	0	7	192
TAP	27	288	1
TAP	27	288	6
TAP	28	0	2
TAP	28	0	5
TAP	28	96	3
STR	28	96	4
SCL	28	96	4	96	144	0
SLL	28	96	4	96	144	0
STR	29	0	6
SF_	29	0	6	96	48	2
STR	29	192	6
SF_	29	192	6	96	48	2
STR	30	0	6
SF_	30	0	6	96	48	2
STR	30	192	6
SF_	30	192	6	96	48	2
TAP	31	0	0
TAP	31	0	7
TAP	31	48	0
TAP	31	48	7
TAP	31	96	0
TAP	31	96	7
TAP	31	192	1
TAP	31	192	6
BRK	31	288	4
STR	32	0	6
SSR	32	0	6	96	144	2
STR	32	288	0
SCR	32	288	0	96	48	2
TAP	32	288	4
TAP	33	0	5
STR	33	96	0
SCR	33	96	0	96	48	4
TAP	33	96	4
TAP	33	192	6
STR	33	288	0
SCR	33	288	0	96	96	6
TAP	33	288	4
TAP	34	0	7
TAP	34	96	0
STR	34	192	0
SI_	34	192	0	96	48	4
STR	34	192	7
SI_	34	192	7	96	48	3
HLD	35	0	2	96
TAP	35	0	6
HLD	35	96	6	96
HLD	35	192	2	96
HLD	35	288	6	96
HLD	36	0	1	96
HLD	36	96	5	96
HLD	36	192	0	96
HLD	36	288	4	96
HLD	37	0	7	96
HLD	37	96	3	96
HLD	37	192	6	96
HLD	37	288	2	96
HLD	38	0	5	96
HLD	38	96	1	192
BRK	38	288	4
HLD	39	0	2	192
TAP	39	0	3
HLD	39	192	1	480
HLD	40	0	0	288
TAP	41	0	4
HLD	41	0	5	192
HLD	41	192	6	480
HLD	42	0	7	288
HLD	43	0	2	192
TAP	43	0	3
TAP	43	96	1
HLD	43	192	1	480
TAP	43	288	0
TAP	44	0	0
TAP	44	96	0
HLD	44	192	0	96
TAP	45	0	4
HLD	45	0	5	192
TAP	45	96	6
HLD	45	192	6	192
TAP	45	288	7
TAP	46	0	7
TAP	46	72	4
TAP	46	72	5
TAP	46	144	2
TAP	46	144	3
TAP	46	216	0
TAP	46	216	1
TAP	46	288	3
TAP	46	288	4
TAP	46	336	3
TAP	46	336	4
TAP	47	0	1
TAP	47	0	6
BST	47	288	2
SCL	47	288	2	96	48	0
BST	47	288	7
SCL	47	288	7	96	48	5
STR	48	96	0
SCR	48	96	0	96	48	2
STR	48	96	5
SCR	48	96	5	96	48	7
STR	48	288	2
SCL	48	288	2	96	48	0
STR	48	288	7
SCL	48	288	7	96	48	5
STR	49	96	0
SCR	49	96	0	96	48	2
STR	49	96	5
SCR	49	96	5	96	48	7
TAP	49	288	2
TAP	49	288	7
TAP	50	0	0
TAP	50	0	5
TAP	50	96	2
TAP	50	96	7
TAP	50	192	0
TAP	50	192	5
TAP	50	288	2
TAP	50	288	7
HLD	51	0	0	48
HLD	51	0	5	48
HLD	51	96	2	48
HLD	51	96	7	48
HLD	51	192	3	48
HLD	51	192	4	48
STR	51	288	0
SCR	51	288	0	96	48	2
STR	51	288	5
SCR	51	288	5	96	48	7
STR	52	96	2
SCL	52	96	2	96	48	0
STR	52	96	7
SCL	52	96	7	96	48	5
STR	52	288	0
SCR	52	288	0	96	48	2
STR	52	288	5
SCR	52	288	5	96	48	7
STR	53	96	2
SCL	53	96	2	96	48	0
STR	53	96	7
SCL	53	96	7	96	48	5
STR	53	288	4
SI_	53	288	4	96	48	1
STR	53	288	5
SI_	53	288	5	96	48	0
STR	54	96	2
SI_	54	96	2	96	48	7
STR	54	96	3
SI_	54	96	3	96	48	6
STR	54	288	4
SUR	54	288	4	96	240	3
STR	54	288	5
SCR	54	288	5	96	240	3
TAP	55	288	0
TAP	55	288	5
BRK	56	0	0
BRK	56	0	5
TAP	56	12	1
TAP	56	12	6
TAP	56	24	2
TAP	56	24	7
BRK	56	96	2
BRK	56	96	7
TAP	56	108	1
TAP	56	108	6
TAP	56	120	0
TAP	56	120	5
TAP	56	192	0
TAP	56	192	5
TAP	56	204	1
TAP	56	204	6
TAP	56	216	2
TAP	56	216	7
TAP	56	288	2
TAP	56	288	7
TAP	56	300	1
TAP	56	300	6
TAP	56	312	0
TAP	56	312	5
TAP	57	0	0
TAP	57	0	5
TAP	57	12	1
TAP	57	12	6
TAP	57	24	2
TAP	57	24	7
TAP	57	96	2
TAP	57	96	7
TAP	57	108	1
TAP	57	108	6
TAP	57	120	0
TAP	57	120	5
TAP	57	192	0
TAP	57	192	5
TAP	57	204	1
TAP	57	204	6
TAP	57	216	2
TAP	57	216	7
TAP	57	288	2
TAP	57	288	7
TAP	57	300	1
TAP	57	300	6
TAP	57	312	0
TAP	57	312	5
HLD	58	0	0	48
HLD	58	0	5	48
TAP	58	96	0
TAP	58	96	5
HLD	58	192	2	48
HLD	58	192	7	48
TAP	58	288	2
TAP	58	288	7
TAP	59	0	0
TAP	59	0	5
TAP	59	96	2
TAP	59	96	7
TAP	59	192	0
TAP	59	192	5
TAP	59	288	2
TAP	59	288	7
BRK	60	0	2
BRK	60	0	7
TAP	60	12	1
TAP	60	12	6
TAP	60	24	0
TAP	60	24	5
TAP	60	96	0
TAP	60	96	5
TAP	60	108	1
TAP	60	108	6
TAP	60	120	2
TAP	60	120	7
TAP	60	192	2
TAP	60	192	7
TAP	60	204	1
TAP	60	204	6
TAP	60	216	0
TAP	60	216	5
TAP	60	288	0
TAP	60	288	5
TAP	60	300	1
TAP	60	300	6
TAP	60	312	2
TAP	60	312	7
TAP	61	0	2
TAP	61	0	7
TAP	61	12	1
TAP	61	12	6
TAP	61	24	0
TAP	61	24	5
TAP	61	96	0
TAP	61	96	5
TAP	61	108	1
TAP	61	108	6
TAP	61	120	2
TAP	61	120	7
TAP	61	192	2
TAP	61	192	7
TAP	61	204	1
TAP	61	204	6
TAP	61	216	0
TAP	61	216	5
TAP	61	288	0
TAP	61	288	5
TAP	61	300	1
TAP	61	300	6
TAP	61	312	2
TAP	61	312	7
BRK	62	0	3
BRK	62	0	6
TAP	62	12	2
TAP	62	12	5
TAP	62	24	1
TAP	62	24	4
BRK	62	96	1
BRK	62	96	4
TAP	62	108	2
TAP	62	108	5
TAP	62	120	3
TAP	62	120	6
TAP	62	192	3
TAP	62	192	6
TAP	62	204	2
TAP	62	204	5
TAP	62	216	1
TAP	62	216	4
TAP	62	288	1
TAP	62	288	4
TAP	62	300	2
TAP	62	300	5
TAP	62	312	3
TAP	62	312	6
TAP	63	0	3
TAP	63	0	6
TAP	63	12	2
TAP	63	12	5
TAP	63	24	1
TAP	63	24	4
TAP	63	96	1
TAP	63	96	4
TAP	63	108	2
TAP	63	108	5
TAP	63	120	3
TAP	63	120	6
TAP	63	192	3
TAP	63	192	6
TAP	63	204	2
TAP	63	204	5
TAP	63	216	1
TAP	63	216	4
TAP	63	288	1
TAP	63	288	4
TAP	63	300	2
TAP	63	300	5
TAP	63	312	3
TAP	63	312	6
TAP	64	0	7
TAP	64	12	6
TAP	64	24	5
TAP	64	36	4
TAP	64	48	3
TAP	64	60	2
TAP	64	72	1
TAP	64	84	0
TAP	64	96	7
TAP	64	108	6
TAP	64	120	5
TAP	64	132	4
TAP	64	144	3
TAP	64	156	2
TAP	64	168	1
TAP	64	180	0
TAP	64	192	7
TAP	64	204	6
TAP	64	216	5
TAP	64	228	4
TAP	64	240	3
TAP	64	252	2
TAP	64	264	1
TAP	64	276	0
TAP	64	288	7
BRK	64	336	1
BRK	64	336	6
BRK	65	0	1
BRK	65	0	6

T_REC_TAP	262
T_REC_BRK	19
T_REC_XTP	0
T_REC_HLD	63
T_REC_XHO	0
T_REC_STR	59
T_REC_BST	6
T_REC_XST	0
T_REC_TTP	0
T_REC_THO	0
T_REC_SLD	70
T_REC_ALL	479
T_NUM_TAP	321
T_NUM_BRK	25
T_NUM_HLD	63
T_NUM_SLD	70
T_NUM_ALL	479
T_JUDGE_TAP	346
T_JUDGE_HLD	162
T_JUDGE_SLD	70
T_JUDGE_ALL	578
TTM_EACHPAIRS	151
TTM_SCR_TAP	160500
TTM_SCR_BRK	65000
TTM_SCR_HLD	63000
TTM_SCR_SLD	105000
TTM_SCR_ALL	393500
TTM_SCR_S	379300
TTM_SCR_SS	391000
TTM_RAT_ACV	10063

