VERSION	0.00.00	1.03.00
FES_MODE	0
BPM_DEF	138.000	138.000	138.000	138.000
MET_DEF	4	4
RESOLUTION	384
CLK_DEF	384
COMPATIBLE_CODE	MA2

BPM	0	0	138.000
MET	0	0	4	4

HLD	2	0	2	384
HLD	3	0	3	384
HLD	4	0	4	384
HLD	5	0	5	384
HLD	6	0	2	384
HLD	7	0	3	384
HLD	8	0	4	384
HLD	9	0	5	384
TAP	10	0	2
TAP	10	192	2
TAP	10	192	5
TAP	11	0	3
TAP	11	96	5
TAP	11	192	7
TAP	11	240	7
TAP	11	288	0
TAP	12	0	4
TAP	12	96	2
TAP	12	192	0
TAP	12	240	0
TAP	12	288	7
TAP	13	0	2
TAP	13	48	2
TAP	13	96	1
TAP	13	96	3
TAP	13	192	5
TAP	13	240	5
TAP	13	288	4
TAP	13	288	6
STR	14	0	3
SCL	14	0	3	96	96	0
SCR	14	0	3	96	96	6
TAP	14	288	2
TAP	14	288	7
TAP	15	0	4
TAP	15	96	2
TAP	15	192	0
TAP	15	240	0
TAP	15	288	7
TAP	16	0	3
TAP	16	96	5
TAP	16	192	7
TAP	16	240	7
TAP	16	288	0
TAP	17	0	6
TAP	17	48	6
TAP	17	96	5
TAP	17	96	7
TAP	17	192	1
TAP	17	240	1
TAP	17	288	0
TAP	17	288	2
STR	18	0	4
SCL	18	0	4	96	96	1
SCR	18	0	4	96	96	7
TAP	18	288	0
TAP	18	288	5
TAP	19	0	2
STR	19	0	5
SCR	19	0	5	96	96	2
TAP	19	288	1
TAP	19	288	6
STR	20	0	2
SCL	20	0	2	96	96	5
TAP	20	0	5
TAP	20	288	1
TAP	20	288	6
TAP	21	0	2
STR	21	0	5
SCR	21	0	5	96	96	2
TAP	21	288	1
TAP	21	288	6
STR	22	0	0
SXL	22	0	0	96	192	3
STR	22	0	7
SXR	22	0	7	96	192	4
STR	23	0	2
SI_	23	0	2	96	192	5
SUL	23	0	2	96	192	5
HLD	24	0	3	96
HLD	24	96	4	96
HLD	24	192	3	96
TAP	24	288	4
STR	25	0	7
SI_	25	0	7	96	192	4
SSR	25	0	7	96	192	3
STR	26	0	4
SI_	26	0	4	96	96	6
SXR	26	0	4	96	96	2
TAP	26	288	3
TAP	26	288	4
STR	27	0	3
SI_	27	0	3	96	96	0
STR	27	0	4
SI_	27	0	4	96	96	7
TAP	27	288	0
TAP	27	288	7
TAP	28	0	3
STR	28	0	5
SI_	28	0	5	96	96	1
TAP	28	288	2
TAP	28	288	3
STR	29	0	3
SI_	29	0	3	96	96	0
STR	29	0	4
SI_	29	0	4	96	96	7
TAP	29	288	0
TAP	29	288	7
BRK	30	0	7
BRK	30	96	7
BRK	30	192	7
BRK	30	240	7
BRK	30	288	7
STR	31	0	1
SUL	31	0	1	96	96	5
HLD	31	0	6	192
TAP	31	288	0
TAP	31	288	1
HLD	32	0	1	192
STR	32	0	6
SUR	32	0	6	96	96	2
TAP	32	288	6
TAP	32	288	7
BRK	33	0	2
BRK	33	96	2
BRK	33	192	3
TAP	33	288	1
TAP	33	288	4
STR	34	0	0
SI_	34	0	0	96	96	4
STR	34	0	6
SI_	34	0	6	96	96	2
TAP	34	288	1
TAP	34	288	7
BST	35	0	2
SXL	35	0	2	96	96	4
BRK	35	0	3
BST	36	0	2
SUL	36	0	2	96	96	4
BRK	36	0	3
BST	37	0	1
SUL	37	0	1	96	96	4
BRK	37	0	3
BST	38	0	2
SCL	38	0	2	96	192	4
BST	38	0	3
SUL	38	0	3	96	192	4
HLD	39	0	3	192
TAP	39	96	1
HLD	39	192	4	192
TAP	39	288	6
STR	40	0	3
SF_	40	0	3	96	192	7
HLD	41	0	4	192
TAP	41	96	6
HLD	41	192	3	192
TAP	41	288	1
STR	42	0	4
SF_	42	0	4	96	192	0
HLD	43	0	3	96
HLD	43	96	1	96
HLD	43	192	0	96
HLD	43	288	7	96
STR	44	0	6
SF_	44	0	6	96	192	2
HLD	45	0	4	96
HLD	45	96	6	96
HLD	45	192	7	96
HLD	45	288	0	96
STR	46	0	1
SF_	46	0	1	96	192	5
TAP	47	0	1
TAP	47	0	6
BRK	47	96	3
BRK	47	192	6
BRK	47	288	7
STR	48	0	2
SI_	48	0	2	96	48	0
STR	48	0	3
SI_	48	0	3	96	48	6
TAP	48	192	2
TAP	48	192	3
TAP	48	288	1
TAP	48	288	5
STR	49	0	2
SI_	49	0	2	96	48	0
STR	49	0	3
SI_	49	0	3	96	48	6
TAP	49	192	2
TAP	49	192	3
TAP	49	288	1
TAP	49	288	5
STR	50	0	4
SI_	50	0	4	96	48	0
STR	50	0	5
SI_	50	0	5	96	48	7
STR	50	192	4
SI_	50	192	4	96	48	0
STR	50	192	5
SI_	50	192	5	96	48	7
STR	51	0	4
SCL	51	0	4	96	96	1
STR	51	0	5
SCR	51	0	5	96	96	0
TAP	51	288	2
TAP	51	288	3
STR	52	0	2
SI_	52	0	2	96	48	0
STR	52	0	3
SI_	52	0	3	96	48	6
TAP	52	192	2
TAP	52	192	3
TAP	52	288	1
TAP	52	288	5
STR	53	0	2
SI_	53	0	2	96	48	0
STR	53	0	3
SI_	53	0	3	96	48	6
TAP	53	192	2
TAP	53	192	3
TAP	53	288	1
TAP	53	288	5
STR	54	0	6
SI_	54	0	6	96	48	4
STR	54	0	7
SI_	54	0	7	96	48	3
STR	54	192	6
SI_	54	192	6	96	48	4
STR	54	192	7
SI_	54	192	7	96	48	3
STR	55	0	6
SCL	55	0	6	96	96	3
STR	55	0	7
SCR	55	0	7	96	96	2
TAP	55	288	6
TAP	55	288	7
STR	56	0	0
SI_	56	0	0	96	48	3
TAP	56	0	1
TAP	56	192	6
STR	56	192	7
SI_	56	192	7	96	48	4
STR	57	0	0
SI_	57	0	0	96	48	4
TAP	57	0	1
TAP	57	192	6
STR	57	192	7
SI_	57	192	7	96	48	3
STR	58	0	0
SI_	58	0	0	96	48	5
TAP	58	0	1
TAP	58	192	6
STR	58	192	7
SI_	58	192	7	96	48	2
HLD	59	0	4	192
HLD	59	96	3	96
TAP	59	240	1
TAP	59	240	6
TAP	59	288	1
TAP	59	288	6
STR	60	0	4
SI_	60	0	4	96	48	7
TAP	60	0	5
TAP	60	192	2
STR	60	192	3
SI_	60	192	3	96	48	0
STR	61	0	4
SI_	61	0	4	96	48	0
TAP	61	0	5
TAP	61	192	2
STR	61	192	3
SI_	61	192	3	96	48	7
STR	62	0	4
SI_	62	0	4	96	48	1
TAP	62	0	5
TAP	62	192	2
STR	62	192	3
SI_	62	192	3	96	48	6
TAP	63	0	0
TAP	63	0	7
TAP	63	96	1
TAP	63	96	6
TAP	63	192	2
TAP	63	192	5
TAP	63	288	3
TAP	63	288	4
STR	64	0	3
SXR	64	0	3	96	192	0
STR	64	0	4
SXL	64	0	4	96	192	7
BRK	65	0	1
BRK	65	0	6

T_REC_TAP	120
T_REC_BRK	16
T_REC_XTP	0
T_REC_HLD	27
T_REC_XHO	0
T_REC_STR	57
T_REC_BST	5
T_REC_XST	0
T_REC_TTP	0
T_REC_THO	0
T_REC_SLD	67
T_REC_ALL	292
T_NUM_TAP	177
T_NUM_BRK	21
T_NUM_HLD	27
T_NUM_SLD	67
T_NUM_ALL	292
T_JUDGE_TAP	198
T_JUDGE_HLD	116
T_JUDGE_SLD	67
T_JUDGE_ALL	381
TTM_EACHPAIRS	73
TTM_SCR_TAP	88500
TTM_SCR_BRK	54600
TTM_SCR_HLD	27000
TTM_SCR_SLD	100500
TTM_SCR_ALL	270600
TTM_SCR_S	260450
TTM_SCR_SS	268500
TTM_RAT_ACV	10078

