VERSION	0.00.00	1.03.00
FES_MODE	0
BPM_DEF	138.000	138.000	138.000	138.000
MET_DEF	4	4
RESOLUTION	384
CLK_DEF	384
COMPATIBLE_CODE	MA2

BPM	0	0	138.000
MET	0	0	4	4

TAP	2	0	1
TAP	2	192	2
TAP	3	0	3
TAP	3	192	3
TAP	3	192	4
TAP	4	0	4
TAP	4	192	5
TAP	5	0	6
TAP	5	96	6
TAP	5	192	6
TAP	5	192	7
TAP	6	0	6
TAP	6	192	5
TAP	7	0	4
TAP	7	192	3
TAP	7	192	4
STR	8	0	3
SXR	8	0	3	96	480	0
STR	8	0	4
SXL	8	0	4	96	480	7
HLD	10	0	0	192
HLD	10	0	7	192
TAP	11	0	1
TAP	11	96	1
TAP	11	192	0
TAP	12	0	6
TAP	12	96	6
TAP	12	192	7
TAP	13	0	1
TAP	13	96	1
TAP	13	192	0
TAP	13	288	0
TAP	14	0	7
TAP	14	96	7
TAP	14	192	6
TAP	14	192	7
TAP	15	0	5
TAP	15	96	5
TAP	15	192	4
TAP	16	0	2
TAP	16	96	2
TAP	16	192	3
TAP	17	0	5
TAP	17	96	5
TAP	17	192	4
TAP	17	288	4
TAP	18	0	3
TAP	18	96	3
TAP	18	192	2
TAP	18	192	3
TAP	19	0	2
TAP	19	96	2
TAP	19	192	1
TAP	19	288	1
TAP	20	0	0
TAP	20	96	0
TAP	20	192	6
TAP	20	192	7
TAP	21	0	5
TAP	21	96	5
TAP	21	192	6
TAP	21	288	6
TAP	22	0	7
TAP	22	96	7
TAP	22	192	0
TAP	22	192	1
TAP	23	0	1
TAP	23	96	0
TAP	23	192	7
TAP	24	0	6
TAP	24	96	7
TAP	24	192	0
TAP	25	0	1
TAP	25	96	2
TAP	25	192	3
TAP	25	192	4
STR	25	288	3
SV_	25	288	3	96	192	0
TAP	25	288	4
TAP	27	0	6
TAP	27	96	7
TAP	27	192	0
TAP	28	0	1
TAP	28	96	0
TAP	28	192	7
TAP	29	0	6
TAP	29	96	5
TAP	29	192	4
TAP	29	192	5
TAP	29	288	4
STR	29	288	5
SI_	29	288	5	96	144	2
TAP	31	0	1
TAP	31	96	0
TAP	31	192	6
TAP	31	192	7
TAP	32	0	6
TAP	32	96	7
TAP	32	192	0
TAP	32	192	1
TAP	33	0	1
TAP	33	96	2
TAP	33	192	3
TAP	33	192	4
STR	33	288	3
SI_	33	288	3	96	144	0
STR	33	288	4
SI_	33	288	4	96	144	7
TAP	35	0	6
TAP	35	96	7
TAP	35	192	0
TAP	35	192	1
TAP	36	0	1
TAP	36	96	0
TAP	36	192	6
TAP	36	192	7
TAP	37	0	6
TAP	37	96	5
TAP	37	192	4
TAP	37	192	5
TAP	37	288	4
STR	37	288	5
SUR	37	288	5	96	192	2
HLD	39	0	1	192
HLD	39	192	2	192
HLD	40	0	3	192
TAP	40	192	4
HLD	41	0	3	192
HLD	41	192	4	192
HLD	42	0	5	192
TAP	42	192	6
HLD	43	0	6	192
HLD	43	192	5	192
HLD	44	0	4	192
TAP	44	192	3
HLD	45	0	4	192
HLD	45	192	3	192
HLD	46	0	2	192
TAP	46	192	1
BRK	47	0	0
BRK	47	0	7
BRK	48	0	6
TAP	48	96	6
TAP	48	192	6
TAP	48	192	7
TAP	48	288	6
TAP	48	288	7
TAP	49	0	1
TAP	49	96	1
TAP	49	192	0
TAP	49	192	1
TAP	49	288	0
TAP	49	288	1
HLD	50	0	6	96
TAP	50	96	7
HLD	50	192	1	96
TAP	50	288	0
TAP	51	0	0
TAP	51	0	7
TAP	51	96	0
TAP	51	96	7
TAP	51	192	1
TAP	51	192	6
TAP	52	0	2
TAP	52	96	2
TAP	52	192	2
TAP	52	192	3
TAP	52	288	2
TAP	52	288	3
TAP	53	0	5
TAP	53	96	5
TAP	53	192	4
TAP	53	192	5
TAP	53	288	4
TAP	53	288	5
HLD	54	0	2	96
TAP	54	96	3
HLD	54	192	5	96
STR	54	288	4
SI_	54	288	4	96	192	0
BRK	56	0	0
BRK	56	0	1
TAP	56	96	0
TAP	56	96	1
TAP	56	192	0
TAP	56	192	1
TAP	56	288	0
TAP	56	288	1
TAP	57	0	6
TAP	57	0	7
TAP	57	96	6
TAP	57	96	7
TAP	57	192	6
TAP	57	192	7
TAP	57	288	6
TAP	57	288	7
HLD	58	0	0	96
HLD	58	0	1	96
HLD	58	192	6	96
HLD	58	192	7	96
TAP	59	0	0
TAP	59	0	7
TAP	59	96	0
TAP	59	96	7
TAP	59	192	1
TAP	59	192	6
TAP	60	0	4
TAP	60	0	5
TAP	60	96	4
TAP	60	96	5
TAP	60	192	4
TAP	60	192	5
TAP	60	288	4
TAP	60	288	5
TAP	61	0	2
TAP	61	0	3
TAP	61	96	2
TAP	61	96	3
TAP	61	192	2
TAP	61	192	3
TAP	61	288	2
TAP	61	288	3
HLD	62	0	4	96
HLD	62	0	5	96
HLD	62	192	2	96
HLD	62	192	3	96
STR	63	0	3
SI_	63	0	3	96	144	0
STR	63	0	4
SI_	63	0	4	96	144	7
HLD	64	0	0	288
HLD	64	0	7	288
BRK	65	0	0
BRK	65	0	7

T_REC_TAP	179
T_REC_BRK	7
T_REC_XTP	0
T_REC_HLD	28
T_REC_XHO	0
T_REC_STR	10
T_REC_BST	0
T_REC_XST	0
T_REC_TTP	0
T_REC_THO	0
T_REC_SLD	10
T_REC_ALL	234
T_NUM_TAP	189
T_NUM_BRK	7
T_NUM_HLD	28
T_NUM_SLD	10
T_NUM_ALL	234
T_JUDGE_TAP	196
T_JUDGE_HLD	92
T_JUDGE_SLD	10
T_JUDGE_ALL	298
TTM_EACHPAIRS	59
TTM_SCR_TAP	94500
TTM_SCR_BRK	18200
TTM_SCR_HLD	28000
TTM_SCR_SLD	15000
TTM_SCR_ALL	155700
TTM_SCR_S	150350
TTM_SCR_SS	155000
TTM_RAT_ACV	10045

