VERSION	0.00.00	1.03.00
FES_MODE	0
BPM_DEF	138.000	138.000	138.000	138.000
MET_DEF	4	4
RESOLUTION	384
CLK_DEF	384
COMPATIBLE_CODE	MA2

BPM	0	0	138.000
MET	0	0	4	4

TAP	2	0	5
TAP	3	0	4
TAP	4	0	3
TAP	5	0	2
TAP	6	0	2
TAP	7	0	3
TAP	8	0	4
TAP	9	0	5
TAP	10	0	3
TAP	10	0	4
TAP	11	0	2
TAP	11	192	2
TAP	12	0	1
TAP	12	192	1
TAP	13	0	0
TAP	13	192	0
TAP	14	0	7
TAP	14	192	0
TAP	14	192	7
TAP	15	0	6
TAP	15	192	6
TAP	16	0	5
TAP	16	192	5
TAP	17	0	4
TAP	17	192	4
TAP	18	0	3
TAP	18	192	3
TAP	18	192	4
TAP	19	0	4
TAP	19	192	4
TAP	19	192	5
TAP	20	0	3
TAP	20	192	2
TAP	20	192	3
TAP	21	0	4
TAP	21	192	4
TAP	21	192	5
TAP	22	0	3
TAP	22	192	2
TAP	22	192	3
HLD	23	0	4	384
HLD	25	0	5	384
HLD	27	0	6	384
HLD	29	0	7	384
TAP	31	0	0
TAP	31	192	0
TAP	32	0	1
TAP	32	192	1
TAP	33	0	2
TAP	33	96	2
TAP	33	192	3
TAP	34	0	2
TAP	34	96	2
TAP	34	192	3
TAP	35	0	4
TAP	35	192	4
TAP	36	0	5
TAP	36	192	5
TAP	37	0	6
TAP	37	96	6
TAP	37	192	7
TAP	38	0	6
TAP	38	96	6
TAP	38	192	7
STR	39	0	0
SI_	39	0	0	96	288	3
STR	41	0	0
SI_	41	0	0	96	288	4
STR	43	0	7
SI_	43	0	7	96	288	4
STR	45	0	7
SI_	45	0	7	96	288	3
TAP	47	0	0
TAP	47	0	7
TAP	48	0	0
TAP	48	96	0
TAP	48	192	0
TAP	49	0	1
TAP	49	96	1
TAP	49	192	1
TAP	50	0	2
TAP	50	96	2
TAP	50	192	2
TAP	51	0	3
TAP	51	96	4
TAP	51	192	3
TAP	51	192	4
TAP	52	0	4
TAP	52	96	4
TAP	52	192	4
TAP	53	0	5
TAP	53	96	5
TAP	53	192	5
TAP	54	0	6
TAP	54	96	6
TAP	54	192	6
TAP	55	0	7
TAP	55	96	0
TAP	55	192	0
TAP	55	192	7
TAP	56	0	7
TAP	56	96	7
TAP	56	192	7
TAP	57	0	6
TAP	57	96	6
TAP	57	192	6
TAP	58	0	5
TAP	58	96	5
TAP	58	192	5
TAP	59	0	3
TAP	59	0	4
TAP	59	96	3
TAP	59	96	4
TAP	59	192	3
TAP	59	192	4
TAP	60	0	3
TAP	60	96	3
TAP	60	192	3
TAP	61	0	2
TAP	61	96	2
TAP	61	192	2
TAP	62	0	1
TAP	62	96	1
TAP	62	192	1
TAP	63	0	0
TAP	63	0	7
TAP	63	96	0
TAP	63	96	7
TAP	63	192	0
TAP	63	192	7
HLD	64	0	0	192
HLD	64	0	7	192
BRK	65	0	0
BRK	65	0	7

T_REC_TAP	118
T_REC_BRK	2
T_REC_XTP	0
T_REC_HLD	6
T_REC_XHO	0
T_REC_STR	4
T_REC_BST	0
T_REC_XST	0
T_REC_TTP	0
T_REC_THO	0
T_REC_SLD	4
T_REC_ALL	134
T_NUM_TAP	122
T_NUM_BRK	2
T_NUM_HLD	6
T_NUM_SLD	4
T_NUM_ALL	134
T_JUDGE_TAP	124
T_JUDGE_HLD	40
T_JUDGE_SLD	4
T_JUDGE_ALL	168
TTM_EACHPAIRS	18
TTM_SCR_TAP	61000
TTM_SCR_BRK	5200
TTM_SCR_HLD	6000
TTM_SCR_SLD	6000
TTM_SCR_ALL	78200
TTM_SCR_S	75700
TTM_SCR_SS	78000
TTM_RAT_ACV	10025

