VERSION	0.00.00	1.03.00
FES_MODE	0
BPM_DEF	200.000	200.000	200.000	200.000
MET_DEF	4	4
RESOLUTION	384
CLK_DEF	384
COMPATIBLE_CODE	MA2

BPM	0	0	200.000
MET	0	0	4	4

HLD	1	0	3	96
HLD	1	96	4	96
HLD	1	192	3	96
TAP	1	288	4
TAP	1	336	4
TAP	2	0	2
TAP	2	48	2
TAP	2	96	3
TAP	2	144	3
TAP	2	192	2
TAP	2	240	2
TAP	2	288	3
TAP	2	336	3
TAP	3	48	0
STR	3	96	0
SI_	3	96	0	96	48	4
TAP	3	192	7
TAP	3	288	3
TAP	3	288	6
TAP	3	336	3
TAP	3	336	6
TAP	4	48	7
STR	4	96	7
SI_	4	96	7	96	48	3
TAP	4	192	0
TAP	4	288	1
TAP	4	288	4
HLD	5	0	7	96
HLD	5	96	0	96
HLD	5	192	7	96
TAP	5	288	0
TAP	5	336	0
TAP	6	0	6
TAP	6	48	6
TAP	6	96	7
TAP	6	144	7
TAP	6	192	6
TAP	6	240	6
TAP	6	288	7
TAP	6	336	7
TAP	7	48	4
STR	7	96	4
SI_	7	96	4	96	48	0
TAP	7	192	3
TAP	7	288	2
TAP	7	288	7
TAP	7	336	2
TAP	7	336	7
TAP	8	48	3
STR	8	96	3
SI_	8	96	3	96	48	7
TAP	8	192	4
TAP	8	288	5
TAP	8	312	1
TAP	8	336	6
TAP	8	360	0
BRK	9	0	7
TAP	9	96	0
TAP	9	96	2
TAP	9	192	3
TAP	9	192	6
TAP	9	240	5
TAP	9	264	4
TAP	9	288	5
TAP	9	336	2
HLD	10	0	7	96
TAP	10	48	0
HLD	10	96	1	96
TAP	10	144	6
HLD	10	192	5	96
TAP	10	240	2
TAP	10	288	3
TAP	10	336	4
TAP	10	336	6
STR	11	48	2
SI_	11	48	2	96	48	4
TAP	11	96	0
TAP	11	144	2
STR	11	192	6
SI_	11	192	6	96	48	3
TAP	11	240	7
TAP	11	288	6
STR	11	336	1
SI_	11	336	1	96	48	4
TAP	12	0	0
TAP	12	48	1
STR	12	96	7
SI_	12	96	7	96	48	3
TAP	12	144	2
TAP	12	192	7
STR	12	240	0
SI_	12	240	0	96	48	4
TAP	12	288	5
TAP	12	336	0
TAP	13	0	6
TAP	13	96	5
TAP	13	96	7
TAP	13	192	1
TAP	13	192	4
TAP	13	240	2
TAP	13	264	3
TAP	13	288	2
TAP	13	336	5
HLD	14	0	0	96
TAP	14	48	7
HLD	14	96	6	96
TAP	14	144	1
HLD	14	192	2	96
TAP	14	240	5
TAP	14	288	4
TAP	14	336	1
TAP	14	336	3
STR	15	48	5
SI_	15	48	5	96	48	3
TAP	15	96	7
TAP	15	144	5
STR	15	192	1
SI_	15	192	1	96	48	4
TAP	15	240	0
TAP	15	288	1
STR	15	336	6
SI_	15	336	6	96	48	3
TAP	16	0	7
TAP	16	48	6
STR	16	96	0
SI_	16	96	0	96	48	4
TAP	16	144	5
TAP	16	192	0
TAP	16	240	7
TAP	16	288	7
TAP	16	336	7
TAP	17	0	3
STR	17	0	7
SI_	17	0	7	96	48	5
TAP	17	144	4
STR	17	192	4
SI_	17	192	4	96	48	0
TAP	17	336	7
STR	18	0	7
SI_	18	0	7	96	48	3
TAP	18	144	2
STR	18	192	2
SI_	18	192	2	96	48	0
TAP	18	336	6
STR	19	0	6
SCL	19	0	6	96	48	3
TAP	19	144	2
STR	19	192	2
SCL	19	192	2	96	48	7
TAP	19	336	5
HLD	20	0	5	144
TAP	20	48	4
TAP	20	96	3
HLD	20	144	2	96
STR	20	240	0
SI_	20	240	0	96	48	3
TAP	20	288	1
TAP	20	336	0
STR	21	48	7
SI_	21	48	7	96	48	3
TAP	21	96	6
TAP	21	144	7
STR	21	240	6
SI_	21	240	6	96	48	3
TAP	21	288	4
TAP	21	336	6
TAP	22	48	2
TAP	22	96	1
TAP	22	144	0
TAP	22	144	5
TAP	22	240	2
TAP	22	240	7
HLD	22	336	4	96
HLD	23	48	3	96
TAP	23	96	4
HLD	23	144	5	96
TAP	23	192	2
HLD	23	240	1	96
TAP	23	288	6
HLD	23	336	7	240
TAP	24	0	1
TAP	24	48	0
TAP	24	96	0
TAP	24	144	0
TAP	24	192	0
TAP	24	240	1
TAP	24	264	6
TAP	24	288	1
TAP	24	312	6
TAP	24	336	1
TAP	24	360	6
STR	25	0	0
SI_	25	0	0	96	48	4
TAP	25	96	7
TAP	25	144	6
STR	25	192	3
SI_	25	192	3	96	48	1
TAP	25	192	5
TAP	25	288	5
TAP	25	336	6
TAP	26	0	0
STR	26	0	7
SI_	26	0	7	96	48	3
TAP	26	96	0
TAP	26	144	1
TAP	26	192	2
STR	26	192	4
SI_	26	192	4	96	48	6
TAP	26	288	2
TAP	26	336	1
STR	27	0	0
SI_	27	0	0	96	48	4
TAP	27	0	7
TAP	27	96	7
TAP	27	144	6
STR	27	192	3
SI_	27	192	3	96	48	1
TAP	27	192	5
TAP	27	288	5
TAP	27	336	6
TAP	28	0	0
TAP	28	0	7
TAP	28	48	1
TAP	28	96	2
TAP	28	144	3
STR	28	192	3
SI_	28	192	3	96	48	1
STR	28	192	7
SI_	28	192	7	96	48	5
TAP	28	288	3
STR	28	288	7
SI_	28	288	7	96	48	3
BRK	29	0	7
TAP	29	96	0
TAP	29	192	3
TAP	29	192	6
TAP	29	240	5
TAP	29	264	4
TAP	29	288	5
TAP	29	336	2
HLD	30	0	7	96
TAP	30	48	0
HLD	30	96	1	96
TAP	30	144	6
HLD	30	192	5	96
TAP	30	240	2
TAP	30	288	3
TAP	30	336	4
TAP	30	336	6
TAP	31	48	2
TAP	31	96	1
TAP	31	144	0
TAP	31	144	7
TAP	31	192	6
TAP	31	240	5
TAP	31	288	3
TAP	31	288	4
TAP	31	336	2
TAP	32	0	1
TAP	32	48	0
TAP	32	48	7
TAP	32	96	6
TAP	32	144	5
TAP	32	192	1
TAP	32	192	4
TAP	32	240	2
TAP	32	240	6
TAP	32	288	0
TAP	32	288	5
STR	32	336	6
SXR	32	336	6	96	48	4
STR	32	336	7
SXL	32	336	7	96	48	1
STR	33	192	0
SXR	33	192	0	96	48	6
STR	33	192	1
SXL	33	192	1	96	48	3
TAP	34	0	2
TAP	34	0	7
TAP	34	96	1
TAP	34	96	4
TAP	34	144	2
TAP	34	168	2
TAP	34	192	3
STR	34	240	1
SCR	34	240	1	96	48	4
STR	34	240	4
SCR	34	240	4	96	48	7
TAP	34	336	1
TAP	34	336	4
TAP	35	96	2
TAP	35	96	6
TAP	35	192	0
TAP	35	240	7
STR	35	288	0
SI_	35	288	0	96	48	2
TAP	36	0	0
STR	36	0	7
SI_	36	0	7	96	48	3
STR	36	96	6
SI_	36	96	6	96	48	4
TAP	36	96	7
TAP	36	192	6
TAP	36	288	0
TAP	36	336	1
TAP	36	336	7
TAP	37	48	2
TAP	37	48	6
TAP	37	96	2
TAP	37	96	6
TAP	37	192	0
TAP	37	192	5
TAP	37	240	6
TAP	37	264	6
TAP	37	288	7
TAP	38	0	3
TAP	38	0	6
TAP	38	48	5
TAP	38	96	1
TAP	38	96	4
TAP	38	144	2
TAP	38	192	3
TAP	38	192	6
STR	38	240	3
SCL	38	240	3	96	48	0
STR	38	240	6
SCL	38	240	6	96	48	3
TAP	38	336	3
TAP	38	336	6
TAP	39	96	5
TAP	39	120	2
TAP	39	144	5
TAP	39	168	2
TAP	39	192	6
TAP	39	216	1
TAP	39	240	6
TAP	39	264	1
STR	39	288	7
SSR	39	288	7	96	72	3
TAP	39	312	0
TAP	39	336	7
TAP	39	360	0
BRK	40	0	7
HLD	40	192	0	48
HLD	40	240	7	48
HLD	40	288	0	48
HLD	40	336	7	48
TAP	41	0	0
TAP	41	96	2
TAP	41	96	7
STR	41	144	0
SI_	41	144	0	96	48	4
STR	41	144	1
SI_	41	144	1	96	48	3
TAP	41	240	0
TAP	41	240	1
TAP	41	336	7
TAP	42	48	0
TAP	42	48	5
STR	42	96	6
SI_	42	96	6	96	48	4
STR	42	96	7
SI_	42	96	7	96	48	3
TAP	42	192	6
TAP	42	192	7
BRK	42	288	0
HLD	43	0	4	96
HLD	43	96	5	96
TAP	43	192	6
TAP	43	240	6
STR	43	288	7
SI_	43	288	7	96	48	3
STR	44	0	7
SI_	44	0	7	96	48	4
SI_	44	0	7	96	48	5
STR	44	96	7
SI_	44	96	7	96	48	1
SI_	44	96	7	96	48	2
BRK	44	192	7
TAP	44	336	3
STR	45	0	2
SCL	45	0	2	96	48	7
TAP	45	0	6
TAP	45	96	3
TAP	45	144	4
STR	45	192	5
SCR	45	192	5	96	48	0
TAP	45	288	4
TAP	45	336	3
STR	46	0	2
SUR	46	0	2	96	48	7
STR	46	96	6
SUR	46	96	6	96	48	3
TAP	46	192	2
TAP	46	288	0
TAP	46	336	0
STR	47	0	6
SI_	47	0	6	96	48	3
TAP	47	24	7
TAP	47	48	6
TAP	47	72	7
BRK	47	96	6
STR	47	192	1
SI_	47	192	1	96	48	4
TAP	47	216	0
TAP	47	240	1
TAP	47	264	0
BRK	47	288	1
STR	48	0	0
SI_	48	0	0	96	48	5
STR	48	0	7
SI_	48	0	7	96	48	4
BST	48	96	0
SI_	48	96	0	96	48	3
BST	48	96	7
SI_	48	96	7	96	48	2
BRK	48	192	0
BRK	48	192	7
TAP	48	288	6
TAP	48	336	1
STR	49	0	3
SI_	49	0	3	96	48	7
TAP	49	0	7
TAP	49	96	5
STR	49	144	5
SCR	49	144	5	96	48	0
STR	49	240	2
SI_	49	240	2	96	48	6
TAP	49	336	4
TAP	50	48	0
TAP	50	48	4
STR	50	96	0
SLR	50	96	0	96	72	4
STR	50	96	4
SLR	50	96	4	96	72	0
TAP	50	192	0
TAP	50	192	4
TAP	50	336	3
TAP	50	336	7
TAP	51	0	3
STR	51	0	7
SI_	51	0	7	96	48	3
TAP	51	96	1
STR	51	144	1
SCR	51	144	1	96	48	4
STR	51	240	6
SI_	51	240	6	96	48	2
STR	51	336	3
SXR	51	336	3	96	144	0
TAP	52	48	4
TAP	52	96	5
TAP	52	144	6
TAP	52	192	7
TAP	52	288	4
TAP	52	336	3
BRK	53	0	2
BRK	53	0	5
TAP	53	96	0
TAP	53	96	5
STR	53	144	6
SI_	53	144	6	96	48	3
STR	53	144	7
SI_	53	144	7	96	48	4
TAP	53	240	6
TAP	53	240	7
TAP	53	336	0
TAP	54	48	2
TAP	54	48	7
STR	54	96	0
SI_	54	96	0	96	48	3
STR	54	96	1
SI_	54	96	1	96	48	4
TAP	54	192	0
TAP	54	192	1
TAP	54	288	0
TAP	54	312	7
TAP	54	336	0
TAP	54	360	7
HLD	55	0	1	288
TAP	55	144	5
HLD	55	192	5	96
TAP	55	336	1
TAP	55	336	5
STR	56	0	1
SV_	56	0	1	96	48	3
STR	56	0	5
SV_	56	0	5	96	48	7
BRK	56	192	2
BRK	56	192	6
TAP	56	240	1
TAP	56	264	0
TAP	56	288	1
TAP	56	336	6
TAP	56	360	7
STR	57	0	6
SI_	57	0	6	96	192	2
TAP	57	96	7
TAP	57	144	7
TAP	57	240	0
TAP	57	336	1
TAP	58	48	7
HLD	58	96	7	96
TAP	58	192	0
STR	59	0	1
SI_	59	0	1	96	192	5
TAP	59	96	6
TAP	59	192	7
TAP	59	240	7
TAP	59	288	0
TAP	60	0	0
TAP	60	0	4
TAP	60	96	3
TAP	60	96	7
TAP	60	192	2
HLD	60	192	6	192
TAP	60	336	4
STR	61	0	4
SCL	61	0	4	96	48	2
TAP	61	144	0
STR	61	192	0
SCL	61	192	0	96	48	6
TAP	62	0	1
TAP	62	0	5
TAP	62	96	2
TAP	62	96	4
STR	62	192	3
SF_	62	192	3	96	96	7
BRK	65	0	1
BRK	65	0	5
TAP	65	96	3
TAP	65	96	6
STR	65	144	4
SI_	65	144	4	96	48	0
STR	65	144	5
SI_	65	144	5	96	48	7
TAP	65	240	4
TAP	65	240	5
TAP	65	336	3
TAP	66	48	1
TAP	66	48	4
STR	66	96	2
SI_	66	96	2	96	48	0
STR	66	96	3
SI_	66	96	3	96	48	7
TAP	66	192	2
TAP	66	192	3
BRK	66	288	4
HLD	67	0	0	96
HLD	67	96	1	96
TAP	67	192	2
TAP	67	240	2
STR	67	288	3
SI_	67	288	3	96	48	7
STR	68	0	3
SI_	68	0	3	96	48	0
SI_	68	0	3	96	48	1
STR	68	96	3
SI_	68	96	3	96	48	5
SI_	68	96	3	96	48	6
BRK	68	192	3
TAP	68	336	7
TAP	69	0	2
STR	69	0	6
SCL	69	0	6	96	48	3
TAP	69	96	7
TAP	69	144	0
STR	69	192	1
SCR	69	192	1	96	48	4
TAP	69	288	0
TAP	69	336	7
STR	70	0	6
SUR	70	0	6	96	48	3
STR	70	96	2
SUR	70	96	2	96	48	7
TAP	70	192	6
TAP	70	288	4
TAP	70	336	4
STR	71	0	2
SI_	71	0	2	96	48	7
TAP	71	24	3
TAP	71	48	2
TAP	71	72	3
BRK	71	96	2
STR	71	192	5
SI_	71	192	5	96	48	0
TAP	71	216	4
TAP	71	240	5
TAP	71	264	4
BRK	71	288	5
STR	72	0	3
SI_	72	0	3	96	48	0
STR	72	0	4
SI_	72	0	4	96	48	1
BST	72	96	3
SI_	72	96	3	96	48	6
BST	72	96	4
SI_	72	96	4	96	48	7
BRK	72	192	3
BRK	72	192	4
TAP	72	288	2
TAP	72	336	5
TAP	73	0	3
STR	73	0	7
SI_	73	0	7	96	48	3
TAP	73	96	1
STR	73	144	1
SCR	73	144	1	96	48	4
STR	73	240	6
SI_	73	240	6	96	48	2
TAP	73	336	0
TAP	74	48	0
TAP	74	48	4
STR	74	96	0
SLR	74	96	0	96	72	4
STR	74	96	4
SLR	74	96	4	96	72	0
TAP	74	192	0
TAP	74	192	4
TAP	74	336	3
TAP	74	336	7
STR	75	0	3
SI_	75	0	3	96	48	7
TAP	75	0	7
TAP	75	96	5
STR	75	144	5
SCR	75	144	5	96	48	0
STR	75	240	2
SI_	75	240	2	96	48	6
STR	75	336	7
SXR	75	336	7	96	144	4
TAP	76	48	0
TAP	76	96	1
TAP	76	144	2
TAP	76	192	3
TAP	76	288	0
TAP	76	336	7
BRK	77	0	1
BRK	77	0	6
TAP	77	96	1
TAP	77	96	4
STR	77	144	2
SI_	77	144	2	96	48	7
STR	77	144	3
SI_	77	144	3	96	48	0
TAP	77	240	2
TAP	77	240	3
TAP	77	336	4
TAP	77	336	5
TAP	78	48	7
TAP	78	72	0
TAP	78	96	6
TAP	78	120	1
TAP	78	144	6
TAP	78	168	1
TAP	78	192	5
TAP	78	216	2
TAP	78	240	5
TAP	78	264	2
TAP	78	288	4
TAP	78	312	3
TAP	78	336	4
TAP	78	360	3
BST	79	0	5
SI_	79	0	5	96	48	1
TAP	79	96	5
TAP	79	96	6
BST	79	192	4
SI_	79	192	4	96	48	0
TAP	79	240	4
BST	79	336	2
SI_	79	336	2	96	48	6
TAP	80	48	2
TAP	80	48	3
BST	80	144	0
SI_	80	144	0	96	48	4
BST	80	240	1
SI_	80	240	1	96	48	5
TAP	80	288	1
BST	81	0	3
SI_	81	0	3	96	48	7
TAP	81	96	3
TAP	81	96	4
BST	81	192	6
SI_	81	192	6	96	48	2
TAP	81	240	0
TAP	81	288	6
TAP	81	336	0
BST	82	0	0
SI_	82	0	0	96	48	4
BST	82	96	0
SCL	82	96	0	96	72	4
SCR	82	96	0	96	72	4
TAP	82	192	0
TAP	82	336	3
STR	83	0	2
SCL	83	0	2	96	48	7
TAP	83	0	6
TAP	83	96	3
TAP	83	144	4
STR	83	192	5
SCR	83	192	5	96	48	0
TAP	83	288	4
TAP	83	336	3
STR	84	0	2
SUR	84	0	2	96	48	7
STR	84	96	6
SUR	84	96	6	96	48	3
TAP	84	192	2
TAP	84	288	0
TAP	84	312	7
TAP	84	336	0
TAP	84	360	7
STR	85	0	1
SI_	85	0	1	96	48	4
TAP	85	24	0
TAP	85	48	1
TAP	85	72	0
BRK	85	96	1
STR	85	192	6
SI_	85	192	6	96	48	3
TAP	85	216	7
TAP	85	240	6
TAP	85	264	7
BRK	85	288	6
TAP	86	0	1
BRK	86	48	0
BRK	86	48	2
BST	86	96	5
SI_	86	96	5	96	48	0
BST	86	96	7
SI_	86	96	7	96	48	2
BRK	86	192	5
BRK	86	192	7
TAP	86	288	1
TAP	86	336	6
STR	87	0	2
SI_	87	0	2	96	48	6
TAP	87	96	4
STR	87	144	4
SCR	87	144	4	96	48	7
STR	87	240	1
SI_	87	240	1	96	48	5
TAP	87	336	3
TAP	88	48	3
TAP	88	48	7
STR	88	96	3
SLR	88	96	3	96	72	7
STR	88	96	7
SLR	88	96	7	96	72	3
TAP	88	192	3
TAP	88	192	7
TAP	88	336	2
TAP	88	336	6
TAP	89	0	2
STR	89	0	6
SI_	89	0	6	96	48	2
TAP	89	96	0
STR	89	144	0
SCR	89	144	0	96	48	3
STR	89	240	5
SI_	89	240	5	96	48	1
STR	89	336	2
SXR	89	336	2	96	144	7
TAP	90	48	3
TAP	90	96	4
TAP	90	144	5
TAP	90	192	6
TAP	90	288	4
TAP	90	312	3
TAP	90	336	4
TAP	90	360	3
BRK	91	0	4
TAP	91	96	0
TAP	91	96	5
STR	91	144	6
SI_	91	144	6	96	48	3
STR	91	144	7
SI_	91	144	7	96	48	4
TAP	91	240	6
TAP	91	240	7
TAP	91	336	0
TAP	91	336	1
TAP	92	48	2
TAP	92	72	3
TAP	92	96	1
TAP	92	120	4
TAP	92	144	1
TAP	92	168	4
TAP	92	192	2
TAP	92	216	6
TAP	92	240	2
TAP	92	264	6
STR	92	288	0
SXL	92	288	0	96	192	3
STR	92	312	4
SXL	92	312	4	96	168	7
TAP	92	336	0
TAP	92	360	4
BRK	93	0	0
TAP	94	96	2
TAP	94	96	6
BRK	94	192	0
BRK	94	192	4
TAP	94	240	6
TAP	94	264	7
TAP	94	288	5
TAP	94	336	2
TAP	94	360	3
TAP	95	0	1
TAP	95	96	3
TAP	95	96	6
TAP	95	192	0
TAP	95	192	5
TAP	95	240	1
TAP	95	264	2
TAP	95	288	3
TAP	95	288	7
TAP	95	336	6
HLD	96	0	5	96
TAP	96	48	4
HLD	96	96	3	96
TAP	96	144	6
HLD	96	192	7	96
TAP	96	240	2
TAP	96	288	1
TAP	96	336	0
TAP	96	336	6
STR	97	48	2
SI_	97	48	2	96	48	6
TAP	97	96	3
TAP	97	144	2
STR	97	192	5
SI_	97	192	5	96	48	1
TAP	97	240	4
TAP	97	288	5
STR	97	336	3
SI_	97	336	3	96	48	7
TAP	98	0	6
TAP	98	48	3
STR	98	96	4
SI_	98	96	4	96	48	0
TAP	98	144	1
TAP	98	192	4
TAP	98	240	3
TAP	98	288	2
TAP	98	336	1
TAP	99	0	0
TAP	99	0	5
TAP	99	96	1
TAP	99	96	4
TAP	99	192	2
TAP	99	192	7
TAP	99	240	6
TAP	99	264	5
TAP	99	288	0
TAP	99	288	4
TAP	99	336	1
HLD	100	0	2	96
TAP	100	48	3
HLD	100	96	4	96
TAP	100	144	1
HLD	100	192	0	96
TAP	100	240	5
TAP	100	288	6
TAP	100	336	1
TAP	100	336	7
STR	101	48	6
SI_	101	48	6	96	48	2
TAP	101	96	7
TAP	101	144	6
STR	101	192	1
SI_	101	192	1	96	48	5
TAP	101	240	0
TAP	101	288	1
STR	101	336	7
SI_	101	336	7	96	48	3
TAP	102	0	2
TAP	102	48	7
STR	102	96	0
SI_	102	96	0	96	48	4
TAP	102	144	5
TAP	102	192	0
TAP	102	240	6
TAP	102	288	7
TAP	102	312	0
TAP	102	336	7
TAP	102	360	0
BST	103	0	7
SI_	103	0	7	96	48	5
TAP	103	96	2
STR	103	96	7
SI_	103	96	7	96	48	3
TAP	103	192	1
STR	103	192	7
SI_	103	192	7	96	48	4
TAP	103	288	0
TAP	103	288	7
TAP	104	0	1
HLD	104	48	1	96
TAP	104	96	3
HLD	104	144	3	96
TAP	104	192	0
HLD	104	240	0	96
TAP	104	288	4
HLD	104	336	4	96
STR	105	48	7
SI_	105	48	7	96	48	3
TAP	105	96	5
TAP	105	144	7
STR	105	192	6
SI_	105	192	6	96	48	2
TAP	105	240	4
TAP	105	288	6
STR	105	336	1
SI_	105	336	1	96	48	5
TAP	106	0	3
TAP	106	48	1
STR	106	96	0
SI_	106	96	0	96	48	4
TAP	106	144	2
TAP	106	192	0
TAP	106	240	3
TAP	106	288	2
TAP	106	336	1
BST	107	0	0
SI_	107	0	0	96	48	2
TAP	107	0	4
STR	107	96	0
SI_	107	96	0	96	48	4
TAP	107	96	5
STR	107	192	0
SI_	107	192	0	96	48	3
TAP	107	192	6
TAP	107	288	0
TAP	107	288	7
TAP	108	0	6
HLD	108	48	6	96
TAP	108	96	4
HLD	108	144	4	96
TAP	108	192	7
HLD	108	240	7	96
TAP	108	288	3
HLD	108	336	3	96
STR	109	48	0
SI_	109	48	0	96	48	4
TAP	109	96	2
TAP	109	144	0
STR	109	192	1
SI_	109	192	1	96	48	5
TAP	109	240	3
TAP	109	288	1
STR	109	336	6
SI_	109	336	6	96	48	2
TAP	110	0	4
TAP	110	48	6
TAP	110	96	7
TAP	110	144	5
TAP	110	192	2
TAP	110	192	6
STR	110	240	1
SI_	110	240	1	96	48	4
STR	110	240	5
SI_	110	240	5	96	48	0
TAP	110	288	2
TAP	110	288	6
BRK	110	336	1
BRK	110	336	5

T_REC_TAP	557
T_REC_BRK	35
T_REC_XTP	0
T_REC_HLD	48
T_REC_XHO	0
T_REC_STR	144
T_REC_BST	17
T_REC_XST	0
T_REC_TTP	0
T_REC_THO	0
T_REC_SLD	166
T_REC_ALL	967
T_NUM_TAP	701
T_NUM_BRK	52
T_NUM_HLD	48
T_NUM_SLD	166
T_NUM_ALL	967
T_JUDGE_TAP	753
T_JUDGE_HLD	102
T_JUDGE_SLD	166
T_JUDGE_ALL	1021
TTM_EACHPAIRS	139
TTM_SCR_TAP	350500
TTM_SCR_BRK	135200
TTM_SCR_HLD	48000
TTM_SCR_SLD	249000
TTM_SCR_ALL	782700
TTM_SCR_S	754200
TTM_SCR_SS	777500
TTM_RAT_ACV	10066

