VERSION	0.00.00	1.03.00
FES_MODE	0
BPM_DEF	200.000	200.000	200.000	200.000
MET_DEF	4	4
RESOLUTION	384
CLK_DEF	384
COMPATIBLE_CODE	MA2

BPM	0	0	200.000
MET	0	0	4	4

STR	1	0	3
SLL	1	0	3	96	480	7
SLR	1	0	3	96	480	7
STR	3	0	0
SLL	3	0	0	96	480	4
SLR	3	0	0	96	480	4
HLD	5	0	5	1056
HLD	7	0	2	288
TAP	8	0	3
TAP	8	0	4
TAP	8	96	3
TAP	8	96	4
TAP	8	192	3
TAP	8	192	4
TAP	9	0	5
TAP	9	96	4
TAP	9	96	5
TAP	9	192	2
TAP	9	288	2
TAP	9	288	3
TAP	10	0	1
TAP	10	48	0
TAP	10	96	1
TAP	10	192	2
TAP	10	192	7
TAP	10	288	1
TAP	10	288	6
TAP	11	0	2
TAP	11	96	1
TAP	11	96	3
TAP	11	192	5
TAP	11	288	4
TAP	11	288	6
TAP	12	0	2
TAP	12	0	3
TAP	12	96	1
TAP	12	96	4
TAP	12	192	0
TAP	12	192	5
TAP	12	288	6
TAP	12	288	7
TAP	13	0	1
TAP	13	96	0
TAP	13	96	1
TAP	13	192	6
TAP	13	288	6
TAP	13	288	7
TAP	14	0	5
TAP	14	48	4
TAP	14	96	5
TAP	14	192	3
TAP	14	192	6
TAP	14	288	2
TAP	14	288	5
TAP	15	0	6
TAP	15	96	5
TAP	15	96	7
TAP	15	192	1
TAP	15	288	0
TAP	15	288	2
TAP	16	0	1
TAP	16	0	6
TAP	16	96	1
TAP	16	96	6
TAP	16	192	3
TAP	16	240	4
TAP	16	288	3
TAP	16	288	4
HLD	17	0	2	576
TAP	17	96	3
TAP	17	192	4
TAP	17	288	4
TAP	18	0	5
TAP	18	96	4
TAP	18	192	3
TAP	18	288	1
TAP	18	288	4
HLD	19	0	5	576
TAP	19	96	4
TAP	19	192	3
TAP	19	288	3
TAP	20	0	2
TAP	20	96	3
TAP	20	192	4
TAP	20	288	3
TAP	20	288	6
HLD	21	0	2	192
TAP	21	0	5
TAP	21	96	4
TAP	21	192	3
TAP	21	288	1
TAP	21	288	4
TAP	22	0	2
HLD	22	0	5	192
TAP	22	96	3
TAP	22	192	4
TAP	22	288	3
STR	22	288	6
SXR	22	288	6	96	288	3
TAP	24	0	2
TAP	24	48	2
TAP	24	96	4
TAP	24	144	4
TAP	24	192	3
TAP	24	192	4
TAP	24	288	2
TAP	24	288	5
HLD	25	0	1	96
TAP	25	0	4
TAP	25	96	3
TAP	25	192	3
HLD	25	192	6	96
TAP	25	288	4
HLD	26	0	1	96
TAP	26	0	5
TAP	26	96	3
TAP	26	192	2
HLD	26	192	6	96
TAP	26	288	4
HLD	27	0	1	96
TAP	27	0	3
TAP	27	96	2
TAP	27	192	4
HLD	27	192	6	96
TAP	27	288	5
TAP	28	0	6
TAP	28	0	7
TAP	28	96	0
TAP	28	96	7
TAP	28	192	0
TAP	28	192	1
TAP	28	288	2
TAP	28	288	7
TAP	29	0	1
TAP	29	0	6
TAP	29	96	2
TAP	29	96	3
TAP	29	192	1
TAP	29	192	6
TAP	29	288	4
TAP	29	288	5
TAP	30	0	6
TAP	30	48	7
TAP	30	96	6
TAP	30	192	0
TAP	30	192	5
TAP	30	288	1
TAP	30	288	6
TAP	31	0	2
TAP	31	96	3
TAP	31	96	4
TAP	31	192	5
TAP	31	288	3
TAP	31	288	4
TAP	32	0	2
TAP	32	0	5
TAP	32	96	2
TAP	32	96	5
TAP	32	192	3
TAP	32	192	4
TAP	32	240	3
TAP	32	240	4
TAP	32	288	3
TAP	32	288	4
BST	32	336	3
SCL	32	336	3	96	144	7
BRK	32	336	4
HLD	34	0	4	192
STR	34	0	5
SCR	34	0	5	96	96	0
STR	35	0	2
SCL	35	0	2	96	96	7
HLD	35	0	3	192
HLD	36	0	3	192
STR	36	0	5
SCR	36	0	5	96	96	1
TAP	37	0	2
TAP	37	96	1
TAP	37	96	3
TAP	37	192	5
TAP	37	288	4
TAP	37	288	6
TAP	38	0	3
TAP	38	0	4
TAP	38	96	0
TAP	38	96	7
TAP	38	192	1
TAP	38	192	6
TAP	39	0	0
TAP	39	48	0
TAP	39	96	5
TAP	39	144	5
TAP	39	192	2
TAP	39	240	2
TAP	39	288	7
TAP	39	336	7
BRK	40	0	0
HLD	41	0	1	144
TAP	41	0	3
TAP	41	96	0
TAP	41	144	0
TAP	41	240	2
TAP	41	240	7
TAP	41	336	0
TAP	41	336	5
TAP	42	48	6
TAP	42	48	7
STR	42	96	6
SI_	42	96	6	96	48	3
STR	42	96	7
SI_	42	96	7	96	48	2
TAP	43	0	4
HLD	43	0	5	96
TAP	43	96	6
HLD	43	192	2	96
TAP	43	192	3
TAP	43	288	1
STR	44	0	7
SI_	44	0	7	96	48	4
STR	44	96	0
SI_	44	96	0	96	48	3
TAP	44	192	7
TAP	45	0	0
TAP	45	0	5
TAP	45	96	6
TAP	45	144	7
TAP	45	192	6
TAP	45	288	0
TAP	45	288	5
TAP	46	0	2
TAP	46	0	3
TAP	46	96	4
TAP	46	96	5
TAP	46	192	3
TAP	46	192	6
TAP	47	0	2
TAP	47	48	2
TAP	47	96	1
TAP	47	96	3
TAP	47	192	5
TAP	47	240	5
TAP	47	288	4
TAP	47	288	6
TAP	48	0	1
TAP	48	0	3
TAP	48	96	4
TAP	48	96	6
TAP	48	192	0
TAP	48	192	7
TAP	49	0	4
HLD	49	0	6	144
TAP	49	96	7
TAP	49	144	7
TAP	49	240	0
TAP	49	240	5
TAP	49	336	2
TAP	49	336	7
TAP	50	48	0
TAP	50	48	1
STR	50	96	0
SI_	50	96	0	96	48	5
STR	50	96	1
SI_	50	96	1	96	48	4
STR	51	0	2
SI_	51	0	2	96	48	0
STR	51	0	6
SI_	51	0	6	96	48	4
STR	51	192	1
SI_	51	192	1	96	48	3
STR	51	192	5
SI_	51	192	5	96	48	7
STR	52	0	2
SI_	52	0	2	96	48	7
STR	52	0	6
SI_	52	0	6	96	48	3
TAP	52	192	0
TAP	52	192	4
HLD	53	0	5	144
TAP	53	0	7
TAP	53	96	4
TAP	53	144	4
TAP	53	240	3
TAP	53	240	6
HLD	53	336	2	144
TAP	54	48	3
TAP	54	96	3
TAP	54	192	1
TAP	54	192	4
HLD	55	0	0	576
BRK	56	192	7
HLD	57	0	2	384
HLD	58	0	3	384
HLD	59	0	4	384
TAP	60	0	5
TAP	60	192	3
TAP	60	192	6
STR	61	0	0
SXL	61	0	0	96	480	3
STR	61	0	7
SXR	61	0	7	96	480	4
HLD	63	0	2	576
HLD	63	0	5	576
TAP	65	0	4
HLD	65	0	6	144
TAP	65	96	7
TAP	65	144	7
TAP	65	240	0
TAP	65	240	5
TAP	65	336	2
TAP	65	336	7
TAP	66	48	0
TAP	66	48	1
STR	66	96	0
SCL	66	96	0	96	48	5
STR	66	96	1
SCR	66	96	1	96	48	4
HLD	67	0	2	96
TAP	67	0	3
TAP	67	96	0
TAP	67	192	4
HLD	67	192	5	96
TAP	67	288	7
STR	68	0	0
SI_	68	0	0	96	48	4
STR	68	96	7
SI_	68	96	7	96	48	3
TAP	68	192	1
TAP	69	0	2
TAP	69	0	7
TAP	69	96	1
TAP	69	144	0
TAP	69	192	1
TAP	69	288	2
TAP	69	288	7
TAP	70	0	4
TAP	70	0	5
TAP	70	96	2
TAP	70	96	3
TAP	70	192	1
TAP	70	192	4
TAP	71	0	5
TAP	71	48	5
TAP	71	96	4
TAP	71	96	6
TAP	71	192	2
TAP	71	240	2
TAP	71	288	1
TAP	71	288	3
TAP	72	0	4
TAP	72	0	6
TAP	72	96	1
TAP	72	96	3
TAP	72	192	0
TAP	72	192	7
HLD	73	0	1	144
TAP	73	0	3
TAP	73	96	0
TAP	73	144	0
TAP	73	240	2
TAP	73	240	7
TAP	73	336	0
TAP	73	336	5
TAP	74	48	6
TAP	74	48	7
STR	74	96	6
SCL	74	96	6	96	48	3
STR	74	96	7
SCR	74	96	7	96	48	2
STR	75	0	1
SI_	75	0	1	96	48	3
STR	75	0	5
SI_	75	0	5	96	48	7
STR	75	192	2
SI_	75	192	2	96	48	0
STR	75	192	6
SI_	75	192	6	96	48	4
STR	76	0	1
SI_	76	0	1	96	48	4
STR	76	0	5
SI_	76	0	5	96	48	0
TAP	76	192	3
TAP	76	192	7
TAP	77	0	4
HLD	77	0	6	144
TAP	77	96	7
TAP	77	144	7
TAP	77	240	0
TAP	77	240	5
HLD	77	336	1	144
TAP	78	48	0
TAP	78	96	0
BRK	78	192	2
BRK	78	192	7
TAP	79	0	0
HLD	79	0	1	96
TAP	79	96	3
TAP	79	192	4
HLD	79	192	5	96
TAP	79	288	7
TAP	80	0	0
HLD	80	0	1	96
TAP	80	96	3
TAP	80	192	4
HLD	80	192	5	96
TAP	80	288	7
TAP	81	0	0
TAP	81	0	1
TAP	81	96	2
TAP	81	96	3
TAP	81	192	4
TAP	81	192	5
TAP	81	288	6
TAP	81	288	7
TAP	82	0	0
TAP	82	0	2
TAP	82	96	3
TAP	82	96	4
BRK	82	192	5
BRK	82	192	7
TAP	83	0	1
TAP	83	0	4
TAP	83	96	2
TAP	83	144	3
TAP	83	192	2
TAP	83	288	1
TAP	83	288	4
TAP	84	0	6
TAP	84	0	7
TAP	84	96	0
TAP	84	96	1
TAP	84	192	2
TAP	84	192	7
TAP	85	0	6
TAP	85	48	7
TAP	85	96	0
TAP	85	96	5
TAP	85	192	1
TAP	85	240	0
TAP	85	288	2
TAP	85	288	7
TAP	86	0	5
TAP	86	0	6
TAP	86	96	1
TAP	86	96	2
TAP	86	192	0
TAP	86	192	7
HLD	87	0	2	144
TAP	87	0	4
TAP	87	96	0
TAP	87	144	0
TAP	87	240	1
TAP	87	240	7
TAP	87	336	3
HLD	87	336	5	144
TAP	88	48	7
TAP	88	96	7
TAP	88	192	0
TAP	88	192	6
BST	89	0	2
SI_	89	0	2	96	48	7
BST	89	0	6
SI_	89	0	6	96	48	3
BST	89	192	1
SI_	89	192	1	96	48	4
BST	89	192	5
SI_	89	192	5	96	48	0
BST	90	0	2
SI_	90	0	2	96	48	7
BST	90	0	6
SI_	90	0	6	96	48	3
BRK	90	192	0
BRK	90	192	4
TAP	91	0	2
TAP	91	0	3
TAP	91	48	2
TAP	91	48	3
TAP	91	96	1
TAP	91	96	4
TAP	91	192	4
TAP	91	192	5
TAP	91	240	4
TAP	91	240	5
TAP	91	288	3
TAP	91	288	6
TAP	92	0	3
TAP	92	0	4
TAP	92	48	3
TAP	92	48	4
TAP	92	96	2
TAP	92	96	5
TAP	92	144	2
TAP	92	144	5
TAP	92	192	1
TAP	92	192	6
TAP	92	240	1
TAP	92	240	6
TAP	92	288	0
TAP	92	288	7
TAP	92	336	0
TAP	92	336	7
HLD	93	0	0	576
TAP	93	0	7
BRK	94	192	7
TAP	95	0	2
TAP	95	96	1
TAP	95	96	3
TAP	95	192	5
TAP	95	288	4
TAP	95	288	6
TAP	96	0	2
TAP	96	48	3
TAP	96	96	2
TAP	96	192	1
TAP	96	192	4
TAP	96	288	2
TAP	96	288	5
TAP	97	0	6
TAP	97	96	0
TAP	97	96	7
TAP	97	192	1
TAP	97	288	0
TAP	97	288	7
TAP	98	0	1
TAP	98	0	6
TAP	98	96	2
TAP	98	96	5
TAP	98	192	3
TAP	98	192	4
TAP	98	288	2
TAP	98	288	5
TAP	99	0	6
TAP	99	96	5
TAP	99	96	7
TAP	99	192	1
TAP	99	288	0
TAP	99	288	2
TAP	100	0	6
TAP	100	48	7
TAP	100	96	6
TAP	100	192	0
TAP	100	192	5
TAP	100	288	1
TAP	100	288	6
TAP	101	0	2
TAP	101	96	3
TAP	101	96	4
TAP	101	192	5
TAP	101	288	3
TAP	101	288	4
TAP	102	0	2
TAP	102	0	5
TAP	102	96	1
TAP	102	96	6
TAP	102	192	0
TAP	102	240	7
TAP	102	288	0
TAP	102	288	7
TAP	103	0	1
TAP	103	96	0
TAP	103	96	1
TAP	103	192	6
TAP	103	288	6
TAP	103	288	7
TAP	104	0	5
TAP	104	48	4
TAP	104	96	5
TAP	104	192	3
TAP	104	192	6
TAP	104	288	2
TAP	104	288	5
TAP	105	0	1
TAP	105	0	4
TAP	105	96	2
TAP	105	192	3
TAP	105	192	6
TAP	105	288	5
TAP	106	0	1
TAP	106	0	4
TAP	106	96	2
TAP	106	192	3
TAP	106	192	6
TAP	106	288	4
TAP	106	288	5
TAP	107	0	2
TAP	107	96	2
TAP	107	96	3
TAP	107	192	5
TAP	107	288	4
TAP	107	288	5
TAP	108	0	6
TAP	108	48	7
TAP	108	96	6
TAP	108	192	0
TAP	108	192	5
TAP	108	288	1
TAP	108	288	6
TAP	109	0	2
TAP	109	0	7
TAP	109	96	1
TAP	109	192	0
TAP	109	192	5
TAP	109	288	6
TAP	110	0	2
TAP	110	0	7
TAP	110	96	1
TAP	110	96	6
TAP	110	192	3
TAP	110	192	4
TAP	110	240	3
TAP	110	240	4
TAP	110	288	3
TAP	110	288	4
BRK	110	336	3
BRK	110	336	4

T_REC_TAP	482
T_REC_BRK	12
T_REC_XTP	0
T_REC_HLD	40
T_REC_XHO	0
T_REC_STR	32
T_REC_BST	7
T_REC_XST	0
T_REC_TTP	0
T_REC_THO	0
T_REC_SLD	41
T_REC_ALL	614
T_NUM_TAP	514
T_NUM_BRK	19
T_NUM_HLD	40
T_NUM_SLD	41
T_NUM_ALL	614
T_JUDGE_TAP	533
T_JUDGE_HLD	202
T_JUDGE_SLD	41
T_JUDGE_ALL	776
TTM_EACHPAIRS	207
TTM_SCR_TAP	257000
TTM_SCR_BRK	49400
TTM_SCR_HLD	40000
TTM_SCR_SLD	61500
TTM_SCR_ALL	407900
TTM_SCR_S	393850
TTM_SCR_SS	406000
TTM_RAT_ACV	10046

