VERSION	0.00.00	1.03.00
FES_MODE	0
BPM_DEF	200.000	200.000	200.000	200.000
MET_DEF	4	4
RESOLUTION	384
CLK_DEF	384
COMPATIBLE_CODE	MA2

BPM	0	0	200.000
MET	0	0	4	4

TAP	9	0	1
TAP	9	96	1
TAP	9	192	2
TAP	9	288	2
TAP	10	0	3
TAP	10	96	3
TAP	10	192	3
TAP	10	192	4
TAP	11	0	4
TAP	11	96	4
TAP	11	192	5
TAP	11	288	5
TAP	12	0	6
TAP	12	96	6
TAP	12	192	6
TAP	12	192	7
TAP	13	0	6
TAP	13	96	6
TAP	13	192	5
TAP	13	288	5
TAP	14	0	4
TAP	14	96	4
TAP	14	192	3
TAP	14	192	4
TAP	15	0	3
TAP	15	96	3
TAP	15	192	2
TAP	15	288	2
TAP	16	0	1
TAP	16	96	1
TAP	16	192	0
TAP	16	192	1
TAP	17	0	2
TAP	17	96	2
TAP	17	192	3
TAP	18	0	4
TAP	18	96	3
TAP	18	192	3
TAP	18	192	4
TAP	19	0	5
TAP	19	96	5
TAP	19	192	4
TAP	20	0	3
TAP	20	96	4
TAP	20	192	2
TAP	20	192	5
BRK	21	0	1
TAP	21	96	1
TAP	21	192	0
TAP	21	192	1
TAP	22	0	6
TAP	22	96	6
STR	22	192	6
SXR	22	192	6	96	480	3
TAP	22	192	7
TAP	24	192	2
TAP	24	192	3
TAP	25	0	5
TAP	25	96	5
TAP	25	192	4
TAP	26	0	3
TAP	26	96	4
TAP	26	192	3
TAP	26	192	4
TAP	27	0	2
TAP	27	96	2
TAP	27	192	3
TAP	28	0	4
TAP	28	96	3
TAP	28	192	2
TAP	28	192	5
TAP	29	0	6
TAP	29	96	6
TAP	29	192	6
TAP	29	192	7
TAP	30	0	1
TAP	30	96	1
TAP	30	192	0
TAP	30	192	1
TAP	31	0	7
TAP	31	96	7
TAP	31	192	0
TAP	31	288	0
TAP	32	0	0
TAP	32	0	7
TAP	32	96	0
TAP	32	96	7
TAP	32	192	1
TAP	32	192	6
HLD	33	0	2	192
TAP	33	192	3
HLD	34	0	5	192
TAP	34	192	4
HLD	35	0	2	192
TAP	35	192	3
TAP	36	0	5
TAP	36	96	5
TAP	36	192	4
TAP	36	192	5
HLD	37	0	1	192
TAP	37	192	0
HLD	38	0	6	192
TAP	38	192	7
HLD	39	0	0	192
TAP	39	192	7
TAP	40	0	1
TAP	40	0	6
BRK	41	0	1
TAP	41	96	1
TAP	41	192	0
TAP	41	288	0
TAP	42	0	7
TAP	42	96	6
TAP	42	192	0
TAP	42	192	5
TAP	43	0	5
TAP	43	96	5
TAP	43	192	4
TAP	43	288	4
TAP	44	0	3
TAP	44	96	4
TAP	44	192	2
TAP	44	192	5
TAP	45	0	5
TAP	45	96	5
TAP	45	192	4
TAP	45	192	6
TAP	46	0	2
TAP	46	96	2
TAP	46	192	1
TAP	46	192	3
TAP	47	0	5
TAP	47	96	4
TAP	47	96	5
TAP	47	192	2
TAP	47	288	2
TAP	47	288	3
TAP	48	0	3
TAP	48	0	4
TAP	48	96	3
TAP	48	96	4
TAP	48	192	2
TAP	48	192	5
BRK	49	0	6
TAP	49	96	6
TAP	49	192	7
TAP	49	288	7
TAP	50	0	0
TAP	50	96	1
TAP	50	192	2
TAP	50	192	7
TAP	51	0	2
TAP	51	96	2
TAP	51	192	3
TAP	51	288	3
TAP	52	0	4
TAP	52	96	3
TAP	52	192	2
TAP	52	192	5
TAP	53	0	2
TAP	53	96	2
TAP	53	192	1
TAP	53	192	3
TAP	54	0	5
TAP	54	96	5
TAP	54	192	4
TAP	54	192	6
BRK	55	0	0
BRK	55	192	7
TAP	56	0	0
TAP	56	0	7
TAP	56	96	0
TAP	56	96	7
BRK	56	192	1
BRK	56	192	6
STR	57	0	6
SXR	57	0	6	96	480	3
STR	57	0	7
SXL	57	0	7	96	480	2
STR	59	0	0
SXR	59	0	0	96	480	5
STR	59	0	1
SXL	59	0	1	96	480	4
STR	61	0	0
SXL	61	0	0	96	480	3
STR	61	0	7
SXR	61	0	7	96	480	4
HLD	63	0	3	576
HLD	63	0	4	576
BRK	65	0	6
TAP	65	96	6
TAP	65	192	7
TAP	65	288	7
TAP	66	0	0
TAP	66	96	1
TAP	66	192	2
TAP	66	192	7
TAP	67	0	2
TAP	67	96	2
TAP	67	192	3
TAP	67	288	3
TAP	68	0	4
TAP	68	96	3
TAP	68	192	2
TAP	68	192	5
TAP	69	0	2
TAP	69	96	2
TAP	69	192	1
TAP	69	192	3
TAP	70	0	5
TAP	70	96	5
TAP	70	192	4
TAP	70	192	6
TAP	71	0	2
TAP	71	96	2
TAP	71	96	3
TAP	71	192	5
TAP	71	288	4
TAP	71	288	5
TAP	72	0	3
TAP	72	0	4
TAP	72	96	3
TAP	72	96	4
TAP	72	192	2
TAP	72	192	5
BRK	73	0	1
TAP	73	96	1
TAP	73	192	0
TAP	73	288	0
TAP	74	0	7
TAP	74	96	6
TAP	74	192	0
TAP	74	192	5
TAP	75	0	5
TAP	75	96	5
TAP	75	192	4
TAP	75	288	4
TAP	76	0	3
TAP	76	96	4
TAP	76	192	2
TAP	76	192	5
TAP	77	0	4
TAP	77	0	5
TAP	77	96	4
TAP	77	96	5
TAP	77	192	4
TAP	77	192	5
TAP	78	0	2
TAP	78	0	3
TAP	78	96	2
TAP	78	96	3
TAP	78	192	2
TAP	78	192	3
BRK	79	0	4
TAP	79	96	5
TAP	79	192	6
TAP	79	288	7
TAP	80	0	0
TAP	80	96	1
TAP	80	192	2
TAP	80	288	3
TAP	81	0	4
TAP	81	96	5
TAP	81	192	6
TAP	81	288	7
TAP	82	0	0
TAP	82	0	1
TAP	82	96	0
TAP	82	96	1
TAP	82	192	2
TAP	82	192	7
TAP	83	0	5
TAP	83	96	5
TAP	83	192	6
TAP	83	192	7
TAP	84	0	2
TAP	84	96	2
TAP	84	192	0
TAP	84	192	1
TAP	85	0	6
TAP	85	96	6
TAP	85	96	7
TAP	85	192	1
TAP	85	288	0
TAP	85	288	1
TAP	86	0	0
TAP	86	0	7
TAP	86	96	0
TAP	86	96	7
TAP	86	192	1
TAP	86	192	6
BRK	87	0	3
TAP	87	96	2
TAP	87	192	1
TAP	87	288	0
TAP	88	0	7
TAP	88	96	6
TAP	88	192	0
TAP	88	192	5
TAP	89	0	7
TAP	89	96	6
TAP	89	192	5
TAP	89	288	4
TAP	90	0	3
TAP	90	96	4
TAP	90	192	2
TAP	90	192	5
TAP	91	0	5
TAP	91	96	5
TAP	91	192	6
TAP	91	192	7
TAP	92	0	2
TAP	92	96	2
TAP	92	192	0
TAP	92	192	1
TAP	93	0	6
TAP	93	0	7
TAP	93	192	0
TAP	93	192	1
TAP	94	0	0
TAP	94	0	7
TAP	94	96	0
TAP	94	96	7
TAP	94	192	1
TAP	94	192	6
TAP	95	0	6
TAP	95	96	6
TAP	95	192	5
TAP	95	288	5
TAP	96	0	4
TAP	96	96	4
TAP	96	192	2
TAP	96	192	3
TAP	97	0	3
TAP	97	96	3
TAP	97	192	2
TAP	97	288	2
TAP	98	0	1
TAP	98	96	1
TAP	98	192	0
TAP	98	192	7
TAP	99	0	1
TAP	99	96	1
TAP	99	192	2
TAP	99	288	2
TAP	100	0	3
TAP	100	96	3
TAP	100	192	4
TAP	100	192	5
TAP	101	0	4
TAP	101	96	4
TAP	101	192	5
TAP	101	288	5
TAP	102	0	6
TAP	102	96	6
TAP	102	192	0
TAP	102	192	7
TAP	103	0	7
TAP	103	96	7
TAP	103	192	6
TAP	103	288	6
TAP	104	0	5
TAP	104	96	5
TAP	104	192	3
TAP	104	192	4
TAP	104	288	3
TAP	104	288	4
TAP	105	0	3
TAP	105	96	3
TAP	105	192	2
TAP	105	288	2
TAP	106	0	1
TAP	106	96	1
TAP	106	192	0
TAP	106	192	7
TAP	107	0	0
TAP	107	96	0
TAP	107	192	1
TAP	107	288	1
TAP	108	0	2
TAP	108	96	2
TAP	108	192	3
TAP	108	192	4
TAP	108	288	3
TAP	108	288	4
TAP	109	0	4
TAP	109	96	4
TAP	109	192	5
TAP	109	288	5
TAP	110	0	6
TAP	110	96	6
TAP	110	192	0
TAP	110	192	7
TAP	110	288	0
TAP	110	288	7
TAP	110	336	0
TAP	110	336	7

T_REC_TAP	364
T_REC_BRK	11
T_REC_XTP	0
T_REC_HLD	8
T_REC_XHO	0
T_REC_STR	7
T_REC_BST	0
T_REC_XST	0
T_REC_TTP	0
T_REC_THO	0
T_REC_SLD	7
T_REC_ALL	397
T_NUM_TAP	371
T_NUM_BRK	11
T_NUM_HLD	8
T_NUM_SLD	7
T_NUM_ALL	397
T_JUDGE_TAP	382
T_JUDGE_HLD	48
T_JUDGE_SLD	7
T_JUDGE_ALL	437
TTM_EACHPAIRS	86
TTM_SCR_TAP	185500
TTM_SCR_BRK	28600
TTM_SCR_HLD	8000
TTM_SCR_SLD	10500
TTM_SCR_ALL	232600
TTM_SCR_S	224600
TTM_SCR_SS	231500
TTM_RAT_ACV	10047

