VERSION	0.00.00	1.03.00
FES_MODE	0
BPM_DEF	200.000	200.000	200.000	200.000
MET_DEF	4	4
RESOLUTION	384
CLK_DEF	384
COMPATIBLE_CODE	MA2

BPM	0	0	200.000
MET	0	0	4	4

TAP	9	0	0
TAP	9	192	0
TAP	10	0	1
TAP	10	192	1
TAP	11	0	2
TAP	11	192	2
TAP	12	0	3
TAP	12	96	4
TAP	12	192	3
TAP	13	0	4
TAP	13	192	4
TAP	14	0	5
TAP	14	192	5
TAP	15	0	6
TAP	15	192	6
TAP	16	0	7
TAP	16	96	0
TAP	16	192	7
HLD	17	0	0	384
HLD	19	0	7	384
HLD	21	0	6	384
HLD	23	0	5	384
TAP	25	0	4
TAP	25	192	4
TAP	26	0	3
TAP	26	96	3
TAP	26	192	3
TAP	27	0	2
TAP	27	192	2
TAP	28	0	1
TAP	28	96	1
TAP	28	192	1
TAP	29	0	0
TAP	29	192	0
TAP	30	0	7
TAP	30	96	7
TAP	30	192	7
TAP	31	0	6
TAP	31	192	6
TAP	32	0	5
TAP	32	96	5
TAP	32	192	5
STR	33	0	4
SI_	33	0	4	96	288	7
STR	35	0	3
SI_	35	0	3	96	288	0
STR	37	0	4
SI_	37	0	4	96	288	1
STR	39	0	3
SI_	39	0	3	96	288	6
TAP	41	0	7
TAP	41	96	7
TAP	41	192	7
TAP	42	0	0
TAP	42	96	0
TAP	42	192	0
TAP	43	0	1
TAP	43	96	1
TAP	43	192	1
TAP	44	0	2
TAP	44	96	2
TAP	44	192	2
TAP	44	192	3
TAP	45	0	3
TAP	45	96	3
TAP	45	192	3
TAP	46	0	4
TAP	46	96	4
TAP	46	192	4
TAP	47	0	5
TAP	47	96	5
TAP	47	192	5
TAP	48	0	6
TAP	48	96	6
TAP	48	192	6
TAP	48	192	7
TAP	49	0	0
TAP	49	96	0
TAP	49	192	0
TAP	50	0	7
TAP	50	96	7
TAP	50	192	7
TAP	51	0	6
TAP	51	96	6
TAP	51	192	6
TAP	52	0	5
TAP	52	96	5
TAP	52	192	4
TAP	52	192	5
TAP	53	0	4
TAP	53	96	4
TAP	53	192	4
TAP	54	0	3
TAP	54	96	3
TAP	54	192	3
BRK	55	0	3
BRK	55	0	4
STR	57	0	1
SI_	57	0	1	96	288	5
STR	59	0	6
SI_	59	0	6	96	288	2
STR	61	0	1
SI_	61	0	1	96	288	4
STR	63	0	6
SI_	63	0	6	96	288	3
TAP	65	0	0
TAP	65	96	0
TAP	65	192	0
TAP	66	0	1
TAP	66	96	1
TAP	66	192	1
TAP	67	0	2
TAP	67	96	2
TAP	67	192	2
TAP	68	0	3
TAP	68	0	4
TAP	68	96	3
TAP	68	96	4
TAP	68	192	3
TAP	68	192	4
TAP	69	0	4
TAP	69	96	4
TAP	69	192	4
TAP	70	0	5
TAP	70	96	5
TAP	70	192	5
TAP	71	0	6
TAP	71	96	6
TAP	71	192	6
TAP	72	0	0
TAP	72	0	7
TAP	72	96	0
TAP	72	96	7
TAP	72	192	0
TAP	72	192	7
TAP	73	0	6
TAP	73	96	6
TAP	73	192	6
TAP	74	0	5
TAP	74	96	5
TAP	74	192	5
TAP	75	0	4
TAP	75	96	4
TAP	75	192	4
TAP	76	0	2
TAP	76	0	3
TAP	76	96	2
TAP	76	96	3
TAP	76	192	2
TAP	76	192	3
TAP	77	0	1
TAP	77	96	1
TAP	77	192	1
TAP	78	0	0
TAP	78	96	0
TAP	78	192	0
TAP	79	0	7
TAP	79	96	7
TAP	79	192	0
TAP	79	288	0
TAP	80	0	1
TAP	80	96	1
TAP	80	192	0
TAP	80	192	1
TAP	81	0	2
TAP	81	96	2
TAP	81	192	3
TAP	81	288	3
TAP	82	0	4
TAP	82	96	4
TAP	82	192	3
TAP	82	192	4
TAP	83	0	5
TAP	83	96	5
TAP	83	192	6
TAP	83	288	6
TAP	84	0	7
TAP	84	96	7
TAP	84	192	0
TAP	84	192	7
TAP	85	0	0
TAP	85	0	1
TAP	85	96	0
TAP	85	96	1
TAP	85	192	0
TAP	85	192	1
TAP	86	0	6
TAP	86	0	7
TAP	86	96	6
TAP	86	96	7
TAP	86	192	6
TAP	86	192	7
TAP	87	0	0
TAP	87	96	0
TAP	87	192	7
TAP	87	288	7
TAP	88	0	6
TAP	88	96	6
TAP	88	192	6
TAP	88	192	7
TAP	89	0	5
TAP	89	96	5
TAP	89	192	4
TAP	89	288	4
TAP	90	0	3
TAP	90	96	3
TAP	90	192	3
TAP	90	192	4
TAP	91	0	2
TAP	91	96	2
TAP	91	192	1
TAP	91	288	1
TAP	92	0	0
TAP	92	96	0
TAP	92	192	0
TAP	92	192	7
BRK	93	0	0
BRK	93	0	7
TAP	95	0	1
TAP	95	96	1
TAP	95	192	1
TAP	96	0	2
TAP	96	96	2
TAP	96	192	2
TAP	97	0	3
TAP	97	96	3
TAP	97	192	3
TAP	98	0	4
TAP	98	96	3
TAP	98	192	4
TAP	99	0	5
TAP	99	96	5
TAP	99	192	5
TAP	100	0	6
TAP	100	96	6
TAP	100	192	6
TAP	101	0	7
TAP	101	96	7
TAP	101	192	7
TAP	102	0	0
TAP	102	96	7
TAP	102	192	0
HLD	103	0	6	384
HLD	103	0	7	384
HLD	105	0	4	384
HLD	105	0	5	384
HLD	107	0	2	384
HLD	107	0	3	384
TAP	109	0	1
TAP	109	192	0
STR	110	0	7
SI_	110	0	7	96	288	3

T_REC_TAP	220
T_REC_BRK	4
T_REC_XTP	0
T_REC_HLD	10
T_REC_XHO	0
T_REC_STR	9
T_REC_BST	0
T_REC_XST	0
T_REC_TTP	0
T_REC_THO	0
T_REC_SLD	9
T_REC_ALL	252
T_NUM_TAP	229
T_NUM_BRK	4
T_NUM_HLD	10
T_NUM_SLD	9
T_NUM_ALL	252
T_JUDGE_TAP	233
T_JUDGE_HLD	80
T_JUDGE_SLD	9
T_JUDGE_ALL	322
TTM_EACHPAIRS	29
TTM_SCR_TAP	114500
TTM_SCR_BRK	10400
TTM_SCR_HLD	10000
TTM_SCR_SLD	13500
TTM_SCR_ALL	148400
TTM_SCR_S	143600
TTM_SCR_SS	148000
TTM_RAT_ACV	10027

