VERSION	0.00.00	1.03.00
FES_MODE	0
BPM_DEF	128.000	128.000	128.000	128.000
MET_DEF	4	4
RESOLUTION	384
CLK_DEF	384
COMPATIBLE_CODE	MA2

BPM	0	0	128.000
MET	0	0	4	4

STR	1	0	2
SCL	1	0	2	96	192	4
HLD	1	0	3	672
HLD	2	0	4	912
STR	3	0	3
SCL	3	0	3	96	192	5
HLD	4	0	5	336
TAP	4	336	4
TAP	5	0	3
TAP	5	96	0
TAP	5	96	2
TAP	5	144	3
TAP	5	288	0
TAP	5	288	2
TAP	6	0	4
TAP	6	96	5
TAP	6	96	7
TAP	6	240	6
TAP	6	288	5
TAP	6	288	7
TAP	7	0	3
TAP	7	96	0
TAP	7	96	2
TAP	7	144	3
TAP	7	240	1
TAP	7	288	0
TAP	7	288	2
TAP	7	336	3
TAP	8	0	4
TAP	8	96	5
TAP	8	96	7
TAP	8	144	6
TAP	8	240	6
TAP	8	288	5
TAP	8	288	7
TAP	8	336	4
TAP	8	360	2
HLD	9	0	3	48
TAP	9	96	3
HLD	9	96	4	48
HLD	9	192	2	48
TAP	9	192	3
TAP	9	288	3
HLD	9	288	5	48
HLD	10	0	1	48
TAP	10	0	3
TAP	10	96	3
HLD	10	96	6	48
HLD	10	192	0	48
TAP	10	192	3
TAP	10	288	3
HLD	10	288	7	48
TAP	11	0	0
HLD	11	0	5	48
TAP	11	48	0
TAP	11	96	0
HLD	11	96	2	48
TAP	11	144	0
TAP	11	192	0
HLD	11	192	6	48
TAP	11	240	0
TAP	11	288	0
HLD	11	288	1	48
TAP	11	336	0
TAP	12	0	7
TAP	12	30	0
TAP	12	48	7
TAP	12	78	0
TAP	12	96	7
TAP	12	126	0
TAP	12	144	7
TAP	12	174	0
TAP	12	192	7
TAP	12	204	6
TAP	12	216	5
TAP	12	228	4
TAP	12	240	3
TAP	12	252	2
TAP	12	264	1
TAP	12	276	0
BRK	12	288	7
STR	13	0	1
SI_	13	0	1	96	48	4
TAP	13	96	0
TAP	13	96	1
TAP	13	176	0
STR	13	192	1
SI_	13	192	1	96	48	4
TAP	13	288	0
TAP	13	288	1
STR	14	0	0
SI_	14	0	0	96	48	5
TAP	14	48	7
TAP	14	96	0
TAP	14	96	1
TAP	14	176	1
STR	14	192	0
SCR	14	192	0	96	48	3
TAP	14	288	0
TAP	14	288	7
STR	15	0	6
SI_	15	0	6	96	48	3
TAP	15	96	6
TAP	15	96	7
TAP	15	176	7
STR	15	192	6
SI_	15	192	6	96	48	3
TAP	15	288	6
TAP	15	288	7
STR	16	0	7
SI_	16	0	7	96	48	2
TAP	16	48	0
TAP	16	96	6
TAP	16	96	7
TAP	16	176	6
STR	16	192	7
SCL	16	192	7	96	48	4
TAP	16	288	0
TAP	16	288	7
TAP	16	336	0
STR	17	0	1
SI_	17	0	1	96	48	4
TAP	17	96	0
TAP	17	96	1
TAP	17	176	0
STR	17	192	1
SI_	17	192	1	96	48	4
TAP	17	288	0
TAP	17	288	1
STR	18	0	0
SI_	18	0	0	96	48	5
TAP	18	48	7
TAP	18	96	0
TAP	18	96	1
TAP	18	176	1
STR	18	192	0
SCR	18	192	0	96	48	3
TAP	18	288	0
TAP	18	288	7
STR	19	0	6
SI_	19	0	6	96	48	3
TAP	19	96	6
TAP	19	96	7
TAP	19	176	7
STR	19	192	6
SI_	19	192	6	96	48	3
STR	19	288	0
SCR	19	288	0	96	48	3
TAP	19	288	6
BRK	20	0	0
STR	20	0	7
SCL	20	0	7	96	48	4
STR	20	96	0
SCR	20	96	0	96	48	3
BRK	20	96	7
BRK	20	192	0
STR	20	192	7
SCL	20	192	7	96	48	4
BRK	20	288	7
TAP	20	300	0
TAP	20	312	1
TAP	20	324	2
TAP	20	336	3
STR	21	0	7
SI_	21	0	7	96	48	2
TAP	21	48	0
TAP	21	96	5
TAP	21	96	7
TAP	21	144	6
TAP	21	176	6
STR	21	192	7
SI_	21	192	7	96	48	2
TAP	21	240	0
TAP	21	288	5
TAP	21	288	7
TAP	21	336	4
STR	22	0	6
SI_	22	0	6	96	48	3
TAP	22	48	5
TAP	22	96	0
TAP	22	96	6
TAP	22	144	7
TAP	22	176	7
STR	22	192	6
SCL	22	192	6	96	48	3
TAP	22	240	5
TAP	22	288	6
TAP	22	288	7
STR	23	0	0
SI_	23	0	0	96	48	5
TAP	23	48	7
TAP	23	96	0
TAP	23	96	2
TAP	23	144	1
TAP	23	176	1
STR	23	192	0
SI_	23	192	0	96	48	5
TAP	23	240	7
TAP	23	288	0
TAP	23	288	2
TAP	23	336	3
STR	24	0	1
SI_	24	0	1	96	48	4
TAP	24	48	2
TAP	24	96	1
TAP	24	96	7
TAP	24	144	0
TAP	24	176	0
STR	24	192	1
SCR	24	192	1	96	48	4
TAP	24	240	2
TAP	24	288	0
TAP	24	288	1
STR	25	0	6
SI_	25	0	6	96	48	3
TAP	25	48	5
TAP	25	96	0
TAP	25	96	6
TAP	25	144	7
TAP	25	176	7
STR	25	192	6
SCL	25	192	6	96	48	3
TAP	25	240	5
TAP	25	288	6
TAP	25	288	7
TAP	25	336	0
STR	26	0	1
SI_	26	0	1	96	48	4
TAP	26	48	2
TAP	26	96	1
TAP	26	96	7
TAP	26	144	0
TAP	26	176	0
STR	26	192	1
SCR	26	192	1	96	48	4
TAP	26	240	2
TAP	26	288	0
TAP	26	288	1
STR	27	0	6
SI_	27	0	6	96	48	3
TAP	27	48	5
TAP	27	96	6
TAP	27	96	7
TAP	27	144	0
STR	27	192	1
SI_	27	192	1	96	48	4
TAP	27	240	2
TAP	27	288	1
STR	27	288	7
SCL	27	288	7	96	48	4
BRK	28	0	3
BST	28	0	7
SCR	28	0	7	96	48	2
BRK	28	96	3
BST	28	96	7
SCL	28	96	7	96	48	4
BRK	28	192	3
BRK	28	192	7
TAP	28	272	0
TAP	28	288	7
TAP	28	336	1
TAP	28	336	6
STR	29	0	2
SCR	29	0	2	96	48	5
TAP	29	0	5
TAP	29	96	7
TAP	29	144	0
STR	29	192	1
SCR	29	192	1	96	48	4
TAP	29	192	7
TAP	29	288	6
TAP	29	336	7
STR	30	0	0
SCR	30	0	0	96	64	4
TAP	30	0	6
TAP	30	96	6
TAP	30	144	7
HLD	30	192	6	96
TAP	30	288	7
TAP	30	320	7
TAP	30	336	5
TAP	30	368	5
HLD	31	0	0	48
TAP	31	48	7
TAP	31	64	6
TAP	31	80	5
TAP	31	96	4
TAP	31	128	1
TAP	31	144	0
TAP	31	176	0
TAP	31	192	1
TAP	31	240	0
TAP	31	240	2
TAP	31	288	1
TAP	31	336	5
TAP	31	336	7
HLD	32	0	6	80
TAP	32	80	7
TAP	32	96	5
TAP	32	128	5
TAP	32	144	4
TAP	32	176	4
TAP	32	192	3
TAP	32	224	3
HLD	32	240	2	144
STR	33	0	5
SCL	33	0	5	96	48	2
TAP	33	96	0
TAP	33	144	7
TAP	33	192	0
STR	33	192	6
SCL	33	192	6	96	48	3
TAP	33	288	1
TAP	33	336	0
TAP	34	0	1
STR	34	0	7
SCL	34	0	7	96	64	3
TAP	34	96	1
TAP	34	144	0
HLD	34	192	1	96
TAP	34	288	0
TAP	34	320	0
TAP	34	336	2
TAP	34	368	2
HLD	35	0	7	48
TAP	35	48	0
TAP	35	64	1
TAP	35	80	2
TAP	35	96	3
TAP	35	128	6
TAP	35	144	7
TAP	35	176	7
TAP	35	192	6
TAP	35	240	5
TAP	35	240	7
TAP	35	288	6
TAP	35	336	0
TAP	35	336	2
HLD	36	0	1	80
TAP	36	80	0
TAP	36	96	2
TAP	36	128	2
TAP	36	144	3
TAP	36	176	3
TAP	36	192	4
TAP	36	224	4
HLD	36	240	5	96
TAP	36	288	6
TAP	36	336	4
TAP	37	0	0
TAP	37	0	7
TAP	37	48	1
TAP	37	96	0
TAP	37	96	2
TAP	37	144	3
TAP	37	192	0
TAP	37	192	7
TAP	37	240	6
TAP	37	288	5
TAP	37	288	7
TAP	37	336	4
TAP	38	0	0
TAP	38	0	1
TAP	38	48	1
TAP	38	96	0
TAP	38	96	2
TAP	38	144	3
TAP	38	192	6
TAP	38	192	7
TAP	38	240	6
TAP	38	288	5
TAP	38	288	7
TAP	38	336	4
HLD	39	0	0	192
TAP	39	0	7
TAP	39	48	1
TAP	39	96	2
TAP	39	144	1
HLD	39	192	7	192
TAP	39	240	6
TAP	39	288	5
TAP	39	336	6
HLD	40	0	0	96
TAP	40	48	1
HLD	40	96	7	96
TAP	40	144	6
STR	40	192	0
SI_	40	192	0	96	48	3
SI_	40	192	0	96	48	5
TAP	40	240	1
TAP	41	0	3
TAP	41	0	4
TAP	41	48	2
TAP	41	96	1
TAP	41	96	3
TAP	41	144	0
TAP	41	192	3
TAP	41	192	4
TAP	41	240	5
TAP	41	288	4
TAP	41	288	6
TAP	41	336	7
TAP	42	0	2
TAP	42	0	3
TAP	42	48	2
TAP	42	96	1
TAP	42	96	3
TAP	42	144	0
TAP	42	192	4
TAP	42	192	5
TAP	42	240	5
TAP	42	288	4
TAP	42	288	6
TAP	42	336	7
HLD	43	0	3	192
TAP	43	0	4
TAP	43	48	2
TAP	43	96	1
TAP	43	144	0
HLD	43	192	4	192
TAP	43	240	5
TAP	43	288	6
TAP	43	336	7
HLD	44	0	0	96
TAP	44	48	2
HLD	44	96	7	96
TAP	44	144	5
HLD	44	192	0	96
TAP	44	240	1
STR	44	288	7
SCL	44	288	7	96	96	4
STR	45	0	4
SCL	45	0	4	96	96	1
TAP	45	96	1
TAP	45	192	7
TAP	45	240	7
TAP	45	288	0
TAP	45	288	6
HLD	46	0	4	552
STR	46	0	5
SCR	46	0	5	96	192	3
HLD	47	0	3	936
STR	48	0	4
SCR	48	0	4	96	192	2
HLD	49	0	2	336
TAP	49	336	3
STR	50	0	2
SCL	50	0	2	96	192	5
TAP	50	96	3
TAP	50	288	4
STR	51	0	5
SCR	51	0	5	96	192	2
TAP	51	96	4
TAP	51	288	3
TAP	52	0	0
TAP	52	0	7
TAP	52	48	1
STR	52	48	6
SCL	52	48	6	96	96	1
TAP	52	96	0
HLD	52	144	7	96
TAP	52	288	0
TAP	52	288	7
TAP	52	336	1
TAP	52	368	1
TAP	53	0	7
TAP	53	32	7
TAP	53	48	0
TAP	53	80	0
TAP	53	96	6
TAP	53	128	6
TAP	53	144	1
TAP	53	192	0
TAP	53	192	7
TAP	53	240	2
TAP	53	240	5
BRK	53	288	0
BRK	53	288	7
TAP	53	296	1
TAP	53	296	6
TAP	53	304	2
TAP	53	304	5
TAP	53	312	3
TAP	53	312	4
TAP	54	0	4
TAP	54	0	6
TAP	54	48	3
TAP	54	96	0
TAP	54	96	2
TAP	54	144	1
TAP	54	176	3
HLD	54	192	2	48
TAP	54	240	1
TAP	54	288	0
TAP	54	288	2
TAP	54	336	7
TAP	55	0	4
TAP	55	0	6
TAP	55	48	3
TAP	55	96	0
TAP	55	96	2
TAP	55	144	1
TAP	55	176	7
STR	55	192	0
SI_	55	192	0	96	48	3
SI_	55	192	0	96	48	5
TAP	55	240	1
TAP	55	288	0
TAP	56	0	4
TAP	56	0	6
TAP	56	48	1
TAP	56	96	0
TAP	56	96	2
TAP	56	144	1
TAP	56	176	3
HLD	56	192	2	48
TAP	56	240	1
TAP	56	288	0
TAP	56	288	2
TAP	56	336	7
TAP	57	0	4
TAP	57	0	6
TAP	57	48	3
TAP	57	96	0
TAP	57	96	2
TAP	57	144	1
TAP	57	176	3
HLD	57	192	2	48
TAP	57	240	1
TAP	57	288	0
TAP	57	288	2
TAP	57	336	1
TAP	57	368	0
TAP	58	0	3
TAP	58	48	4
TAP	58	96	5
TAP	58	96	7
TAP	58	144	6
TAP	58	176	4
HLD	58	192	5	48
TAP	58	240	6
TAP	58	288	5
TAP	58	288	7
TAP	58	336	0
TAP	59	0	1
TAP	59	0	3
TAP	59	48	4
TAP	59	96	5
TAP	59	96	7
TAP	59	144	6
TAP	59	176	0
STR	59	192	7
SI_	59	192	7	96	48	2
SI_	59	192	7	96	48	4
TAP	59	240	6
TAP	59	288	7
TAP	60	0	1
TAP	60	0	3
TAP	60	48	6
TAP	60	96	5
TAP	60	96	7
TAP	60	144	6
TAP	60	176	4
HLD	60	192	5	48
TAP	60	240	6
TAP	60	288	5
TAP	60	288	7
TAP	60	336	4
TAP	61	0	1
BRK	61	0	3
TAP	61	48	0
TAP	61	96	7
BRK	61	144	4
HLD	61	144	6	96
TAP	61	240	1
BRK	61	288	0
BRK	61	288	7
BRK	61	296	1
BRK	61	296	6
BRK	61	304	2
BRK	61	304	5
BRK	61	312	3
BRK	61	312	4
TAP	62	0	1
STR	62	0	6
SCL	62	0	6	96	48	3
TAP	62	48	3
TAP	62	96	6
TAP	62	96	7
TAP	62	144	0
TAP	62	176	6
STR	62	192	7
SCR	62	192	7	96	48	2
TAP	62	240	2
TAP	62	288	5
TAP	62	288	7
TAP	62	336	6
TAP	62	368	6
TAP	63	0	7
TAP	63	32	7
TAP	63	48	0
TAP	63	96	1
TAP	63	96	3
TAP	63	144	2
TAP	63	176	7
STR	63	192	0
SF_	63	192	0	96	48	4
TAP	63	240	1
BRK	63	288	0
STR	64	0	1
SCR	64	0	1	96	48	4
TAP	64	0	6
TAP	64	48	4
TAP	64	96	0
TAP	64	96	1
TAP	64	144	7
TAP	64	176	1
STR	64	192	0
SCL	64	192	0	96	48	5
TAP	64	240	5
TAP	64	288	0
TAP	64	288	1
TAP	64	336	2
TAP	64	368	2
TAP	65	0	0
TAP	65	32	0
TAP	65	48	7
TAP	65	96	4
TAP	65	96	6
TAP	65	144	5
TAP	65	176	7
TAP	65	192	6
TAP	65	240	5
TAP	65	288	4
TAP	65	288	6
TAP	65	336	5
TAP	65	366	2
TAP	66	0	7
TAP	66	30	0
TAP	66	48	4
TAP	66	78	3
TAP	66	96	7
TAP	66	126	0
TAP	66	144	4
TAP	66	174	3
TAP	66	192	6
TAP	66	222	7
TAP	66	240	3
TAP	66	270	2
TAP	66	288	6
TAP	66	318	7
TAP	66	336	3
TAP	66	366	2
TAP	67	0	7
TAP	67	30	0
TAP	67	48	4
TAP	67	78	3
TAP	67	96	7
TAP	67	126	0
TAP	67	144	4
TAP	67	174	3
TAP	67	192	0
TAP	67	222	1
TAP	67	240	5
BRK	67	270	4
BRK	67	270	6
TAP	67	336	7
TAP	67	368	0
TAP	68	0	6
TAP	68	48	5
STR	68	48	7
SCR	68	48	7	96	96	5
TAP	68	96	6
TAP	68	144	5
HLD	68	240	6	48
TAP	68	288	7
TAP	68	320	7
TAP	68	336	0
TAP	69	0	1
STR	69	48	0
SCL	69	48	0	96	96	2
TAP	69	48	2
TAP	69	96	1
TAP	69	144	2
HLD	69	240	1	48
TAP	69	288	0
TAP	69	320	0
TAP	69	336	7
TAP	69	368	7
TAP	70	0	6
TAP	70	48	5
STR	70	48	7
SCR	70	48	7	96	96	5
TAP	70	96	6
TAP	70	144	5
STR	70	240	6
SCR	70	240	6	96	384	5
HLD	70	336	2	384

T_REC_TAP	502
T_REC_BRK	24
T_REC_XTP	0
T_REC_HLD	45
T_REC_XHO	0
T_REC_STR	60
T_REC_BST	2
T_REC_XST	0
T_REC_TTP	0
T_REC_THO	0
T_REC_SLD	65
T_REC_ALL	698
T_NUM_TAP	562
T_NUM_BRK	26
T_NUM_HLD	45
T_NUM_SLD	65
T_NUM_ALL	698
T_JUDGE_TAP	588
T_JUDGE_HLD	151
T_JUDGE_SLD	65
T_JUDGE_ALL	804
TTM_EACHPAIRS	130
TTM_SCR_TAP	281000
TTM_SCR_BRK	67600
TTM_SCR_HLD	45000
TTM_SCR_SLD	97500
TTM_SCR_ALL	491100
TTM_SCR_S	473850
TTM_SCR_SS	488500
TTM_RAT_ACV	10053

