VERSION	0.00.00	1.03.00
FES_MODE	0
BPM_DEF	128.000	128.000	128.000	128.000
MET_DEF	4	4
RESOLUTION	384
CLK_DEF	384
COMPATIBLE_CODE	MA2

BPM	0	0	128.000
MET	0	0	4	4

HLD	1	0	2	384
HLD	2	0	3	384
HLD	3	0	4	384
HLD	4	0	5	384
HLD	5	0	2	384
TAP	5	96	3
TAP	5	288	3
HLD	6	0	5	384
TAP	6	96	4
TAP	6	288	4
HLD	7	0	3	384
TAP	7	96	2
TAP	7	288	2
HLD	8	0	4	384
TAP	8	96	5
TAP	8	288	5
TAP	9	0	3
TAP	9	96	3
TAP	9	192	4
TAP	9	288	4
TAP	10	0	2
TAP	10	96	2
TAP	10	192	5
TAP	10	288	5
TAP	11	0	1
TAP	11	48	1
TAP	11	96	6
TAP	11	144	6
TAP	11	192	0
TAP	11	240	0
TAP	11	288	7
TAP	11	336	7
TAP	12	0	0
TAP	12	32	7
TAP	12	48	0
TAP	12	80	7
STR	12	96	0
SCR	12	96	0	96	96	7
TAP	12	128	7
TAP	12	144	0
TAP	12	176	7
BRK	12	288	0
TAP	13	0	2
HLD	13	0	4	96
TAP	13	96	1
HLD	13	192	3	96
TAP	13	192	5
TAP	13	288	6
TAP	14	0	0
TAP	14	96	7
TAP	14	192	3
TAP	14	288	0
TAP	14	288	4
HLD	15	0	3	96
TAP	15	0	5
TAP	15	96	6
TAP	15	192	2
HLD	15	192	4	96
TAP	15	288	1
TAP	16	0	7
TAP	16	96	0
TAP	16	192	4
TAP	16	288	3
TAP	16	288	7
TAP	17	0	2
HLD	17	0	4	96
TAP	17	96	1
HLD	17	192	3	96
TAP	17	192	5
TAP	17	288	6
TAP	18	0	0
TAP	18	96	7
TAP	18	192	3
TAP	18	288	0
TAP	18	288	4
TAP	19	0	3
TAP	19	0	5
TAP	19	96	1
TAP	19	96	3
TAP	19	192	1
TAP	19	192	7
TAP	19	288	5
TAP	19	288	7
HLD	20	0	3	48
HLD	20	0	5	48
HLD	20	96	3	48
HLD	20	96	5	48
STR	20	192	3
SCL	20	192	3	96	48	0
TAP	20	192	5
TAP	21	0	3
TAP	21	0	5
TAP	21	48	4
TAP	21	96	5
TAP	21	144	7
TAP	21	192	2
TAP	21	192	4
TAP	21	240	3
TAP	21	288	2
TAP	21	336	0
TAP	22	0	7
TAP	22	48	5
TAP	22	96	0
TAP	22	144	2
STR	22	192	4
SI_	22	192	4	96	48	7
TAP	22	240	4
TAP	22	288	3
TAP	23	0	2
TAP	23	0	4
TAP	23	48	3
TAP	23	96	2
TAP	23	144	0
TAP	23	192	3
TAP	23	192	5
TAP	23	240	4
TAP	23	288	5
TAP	23	336	7
TAP	24	0	0
TAP	24	48	2
TAP	24	96	7
TAP	24	144	5
TAP	24	192	3
TAP	24	240	3
TAP	24	288	2
TAP	24	288	4
TAP	25	0	3
TAP	25	0	5
TAP	25	48	4
TAP	25	96	5
TAP	25	144	7
TAP	25	192	2
TAP	25	192	4
TAP	25	240	3
TAP	25	288	2
TAP	25	336	0
TAP	26	0	7
TAP	26	48	5
TAP	26	96	0
TAP	26	144	2
STR	26	192	4
SI_	26	192	4	96	48	7
TAP	26	240	4
TAP	26	288	3
TAP	27	0	2
TAP	27	0	4
TAP	27	48	3
TAP	27	96	2
TAP	27	144	0
TAP	27	192	3
TAP	27	192	5
TAP	27	240	4
TAP	27	288	5
TAP	27	336	7
TAP	28	0	3
TAP	28	48	1
TAP	28	96	4
TAP	28	144	6
TAP	28	192	3
TAP	28	240	1
TAP	28	288	3
TAP	28	288	4
STR	29	0	2
SCL	29	0	2	96	48	0
TAP	29	0	4
TAP	29	96	3
TAP	29	144	3
STR	29	192	2
SCL	29	192	2	96	48	7
TAP	29	192	4
TAP	29	288	3
TAP	29	336	3
STR	30	0	2
SCL	30	0	2	96	48	6
TAP	30	0	4
TAP	30	96	3
TAP	30	144	3
TAP	30	192	2
TAP	30	192	4
TAP	30	240	5
TAP	30	288	4
TAP	30	336	2
TAP	31	0	3
STR	31	0	5
SCR	31	0	5	96	48	7
TAP	31	96	4
TAP	31	144	4
TAP	31	192	3
STR	31	192	5
SCR	31	192	5	96	48	0
TAP	31	288	4
TAP	31	336	4
TAP	32	0	3
STR	32	0	5
SCR	32	0	5	96	48	1
TAP	32	96	4
TAP	32	144	4
TAP	32	192	3
TAP	32	192	5
TAP	32	240	2
TAP	32	288	4
TAP	32	336	3
STR	33	0	1
SCR	33	0	1	96	48	3
TAP	33	0	4
TAP	33	96	6
TAP	33	144	6
STR	33	192	1
SCR	33	192	1	96	48	4
TAP	33	192	4
TAP	33	288	7
TAP	33	336	7
STR	34	0	1
SCR	34	0	1	96	48	5
TAP	34	0	4
TAP	34	96	0
TAP	34	144	0
TAP	34	192	3
TAP	34	192	6
TAP	34	240	4
TAP	34	288	5
TAP	34	336	4
TAP	35	0	3
STR	35	0	6
SCL	35	0	6	96	48	4
TAP	35	96	1
TAP	35	144	1
TAP	35	192	3
STR	35	192	6
SCL	35	192	6	96	48	3
TAP	35	288	0
TAP	35	336	0
TAP	36	0	2
STR	36	0	6
SCL	36	0	6	96	48	2
TAP	36	96	7
TAP	36	144	7
TAP	36	192	2
TAP	36	192	5
TAP	36	240	3
TAP	36	288	3
TAP	36	288	4
TAP	37	0	0
STR	37	0	7
SCL	37	0	7	96	192	0
TAP	37	96	0
TAP	37	192	7
TAP	37	288	7
STR	38	0	0
SCR	38	0	0	96	192	7
TAP	38	0	7
TAP	38	96	7
TAP	38	192	0
TAP	38	288	0
TAP	39	0	3
STR	39	0	7
SCL	39	0	7	96	96	4
TAP	39	96	3
TAP	39	192	0
TAP	39	240	1
TAP	39	288	2
TAP	39	288	6
STR	40	0	0
SCR	40	0	0	96	96	3
TAP	40	0	4
TAP	40	96	4
TAP	40	192	7
TAP	40	240	6
TAP	40	288	1
TAP	40	288	5
STR	41	0	3
SCL	41	0	3	96	192	4
TAP	41	0	4
TAP	41	96	4
TAP	41	192	3
TAP	41	288	3
TAP	42	0	3
STR	42	0	4
SCR	42	0	4	96	192	3
TAP	42	96	3
TAP	42	192	4
TAP	42	288	4
STR	43	0	3
SCL	43	0	3	96	96	0
TAP	43	0	7
TAP	43	96	7
TAP	43	192	4
TAP	43	240	5
TAP	43	288	2
TAP	43	288	6
TAP	44	0	0
STR	44	0	4
SCR	44	0	4	96	96	7
TAP	44	96	0
TAP	44	192	3
TAP	44	240	2
TAP	44	288	1
STR	44	288	5
SCR	44	288	5	96	288	2
HLD	46	0	4	384
HLD	47	0	7	384
HLD	48	0	0	384
HLD	49	0	3	384
TAP	50	0	4
HLD	50	96	2	96
TAP	50	96	4
TAP	50	192	3
HLD	50	288	2	96
TAP	50	288	4
TAP	51	0	3
HLD	51	96	2	96
TAP	51	96	4
TAP	51	192	3
HLD	51	288	2	96
TAP	51	288	4
TAP	52	0	3
HLD	52	96	2	96
TAP	52	96	4
TAP	52	192	3
TAP	52	288	2
TAP	52	288	4
TAP	53	0	1
TAP	53	48	1
TAP	53	96	7
TAP	53	144	7
TAP	53	192	0
TAP	53	224	7
TAP	53	240	0
TAP	53	272	7
BRK	53	288	0
STR	54	0	3
SI_	54	0	3	96	48	7
TAP	54	0	5
TAP	54	96	4
TAP	54	144	4
STR	54	192	1
SI_	54	192	1	96	48	4
TAP	54	192	5
TAP	54	288	0
TAP	54	336	0
STR	55	0	3
SI_	55	0	3	96	48	7
TAP	55	0	5
TAP	55	96	4
TAP	55	144	4
STR	55	192	1
SI_	55	192	1	96	48	4
TAP	55	192	5
TAP	55	288	0
STR	56	0	3
SI_	56	0	3	96	48	7
TAP	56	0	6
TAP	56	96	4
TAP	56	144	4
STR	56	192	1
SI_	56	192	1	96	48	4
TAP	56	192	5
TAP	56	288	0
TAP	56	336	0
STR	57	0	3
SI_	57	0	3	96	48	7
TAP	57	0	7
TAP	57	96	4
TAP	57	144	4
TAP	57	192	1
TAP	57	192	5
TAP	57	288	3
TAP	57	288	7
TAP	58	0	2
STR	58	0	4
SI_	58	0	4	96	48	0
TAP	58	96	3
TAP	58	144	3
TAP	58	192	2
STR	58	192	6
SI_	58	192	6	96	48	3
TAP	58	288	7
TAP	58	336	7
TAP	59	0	2
STR	59	0	4
SI_	59	0	4	96	48	0
TAP	59	96	3
TAP	59	144	3
TAP	59	192	1
STR	59	192	6
SI_	59	192	6	96	48	3
BRK	59	288	7
TAP	60	0	0
STR	60	0	4
SI_	60	0	4	96	48	0
TAP	60	96	3
TAP	60	144	3
TAP	60	192	2
STR	60	192	6
SI_	60	192	6	96	48	3
TAP	60	288	7
TAP	60	336	7
TAP	61	0	1
TAP	61	0	4
STR	61	96	1
SLR	61	96	1	96	96	0
STR	61	96	6
SLL	61	96	6	96	96	7
TAP	61	144	1
TAP	61	144	6
TAP	62	0	2
STR	62	0	4
SI_	62	0	4	96	48	0
TAP	62	48	2
TAP	62	96	3
TAP	62	144	3
TAP	62	192	2
STR	62	192	6
SI_	62	192	6	96	48	3
TAP	62	240	2
TAP	62	288	1
TAP	62	336	1
TAP	63	0	2
STR	63	0	4
SI_	63	0	4	96	48	0
TAP	63	48	2
TAP	63	96	3
TAP	63	144	3
TAP	63	192	2
STR	63	192	6
SI_	63	192	6	96	48	3
TAP	63	240	1
TAP	63	288	0
TAP	63	336	0
TAP	64	0	1
STR	64	0	4
SI_	64	0	4	96	48	0
TAP	64	48	2
TAP	64	96	3
TAP	64	144	3
TAP	64	192	2
STR	64	192	6
SI_	64	192	6	96	48	3
TAP	64	240	0
TAP	64	288	7
TAP	64	336	7
TAP	65	0	1
STR	65	0	4
SI_	65	0	4	96	48	0
TAP	65	48	2
TAP	65	96	3
TAP	65	144	3
TAP	65	192	2
TAP	65	192	6
TAP	65	240	5
TAP	65	288	0
TAP	65	288	4
STR	66	0	3
SI_	66	0	3	96	48	7
TAP	66	0	6
TAP	66	48	5
TAP	66	96	4
TAP	66	144	4
STR	66	192	1
SI_	66	192	1	96	48	4
TAP	66	192	5
TAP	66	240	7
TAP	66	288	0
TAP	66	336	0
STR	67	0	3
SI_	67	0	3	96	48	7
TAP	67	0	6
TAP	67	48	5
TAP	67	96	4
TAP	67	144	4
TAP	67	192	1
TAP	67	192	5
TAP	67	240	0
HLD	67	288	0	48
HLD	67	288	7	48
TAP	68	0	3
TAP	68	0	6
TAP	68	48	4
TAP	68	96	3
HLD	68	144	0	96
TAP	68	144	4
TAP	68	240	4
TAP	68	288	3
TAP	68	336	2
TAP	69	0	1
TAP	69	0	4
TAP	69	48	3
TAP	69	96	4
TAP	69	144	3
HLD	69	144	7	96
TAP	69	240	3
TAP	69	288	4
TAP	69	336	5
TAP	70	0	3
TAP	70	0	6
TAP	70	48	4
TAP	70	96	3
HLD	70	144	0	96
TAP	70	144	4
STR	70	240	4
SCR	70	240	4	96	384	3
TAP	70	288	4
BRK	70	336	3

T_REC_TAP	365
T_REC_BRK	4
T_REC_XTP	0
T_REC_HLD	32
T_REC_XHO	0
T_REC_STR	51
T_REC_BST	0
T_REC_XST	0
T_REC_TTP	0
T_REC_THO	0
T_REC_SLD	51
T_REC_ALL	503
T_NUM_TAP	416
T_NUM_BRK	4
T_NUM_HLD	32
T_NUM_SLD	51
T_NUM_ALL	503
T_JUDGE_TAP	420
T_JUDGE_HLD	130
T_JUDGE_SLD	51
T_JUDGE_ALL	601
TTM_EACHPAIRS	99
TTM_SCR_TAP	208000
TTM_SCR_BRK	10400
TTM_SCR_HLD	32000
TTM_SCR_SLD	76500
TTM_SCR_ALL	326900
TTM_SCR_S	316750
TTM_SCR_SS	326500
TTM_RAT_ACV	10012

