VERSION	0.00.00	1.03.00
FES_MODE	0
BPM_DEF	128.000	128.000	128.000	128.000
MET_DEF	4	4
RESOLUTION	384
CLK_DEF	384
COMPATIBLE_CODE	MA2

BPM	0	0	128.000
MET	0	0	4	4

HLD	1	0	2	288
HLD	1	0	3	288
HLD	2	0	3	288
HLD	2	0	4	288
HLD	3	0	4	288
HLD	3	0	5	288
HLD	4	0	3	192
HLD	4	0	4	192
TAP	4	288	3
TAP	4	288	4
TAP	5	0	4
TAP	5	0	5
TAP	5	96	3
TAP	5	288	3
TAP	6	0	2
TAP	6	0	3
TAP	6	96	4
TAP	6	288	4
TAP	7	0	4
TAP	7	0	5
TAP	7	96	3
TAP	7	288	3
TAP	8	0	2
TAP	8	0	3
TAP	8	96	5
TAP	8	288	5
TAP	9	0	4
TAP	9	96	4
TAP	9	192	3
TAP	9	288	3
TAP	10	0	5
TAP	10	96	4
TAP	10	96	5
TAP	10	192	2
TAP	10	288	2
TAP	10	288	3
TAP	11	0	5
TAP	11	96	4
TAP	11	96	6
TAP	11	192	2
TAP	11	288	1
TAP	11	288	3
TAP	12	0	7
TAP	12	96	0
TAP	12	192	7
BRK	12	288	1
BRK	12	288	6
TAP	13	0	5
TAP	13	96	6
TAP	13	96	7
TAP	13	288	6
TAP	13	288	7
TAP	14	0	2
TAP	14	96	0
TAP	14	96	1
TAP	14	288	0
TAP	14	288	1
TAP	15	0	6
TAP	15	96	0
TAP	15	96	7
TAP	15	288	0
TAP	15	288	7
TAP	16	0	1
TAP	16	96	0
TAP	16	96	1
TAP	16	192	6
TAP	16	288	6
TAP	16	288	7
TAP	17	0	2
TAP	17	96	0
TAP	17	96	1
TAP	17	288	0
TAP	17	288	1
TAP	18	0	5
TAP	18	96	6
TAP	18	96	7
TAP	18	288	6
TAP	18	288	7
TAP	19	0	1
TAP	19	96	0
TAP	19	96	7
TAP	19	288	0
TAP	19	288	7
TAP	20	0	0
TAP	20	0	7
TAP	20	96	1
TAP	20	96	6
TAP	20	192	2
TAP	20	192	5
TAP	20	288	3
TAP	20	288	4
TAP	21	0	4
TAP	21	0	5
TAP	21	96	6
TAP	21	192	4
TAP	21	192	5
TAP	21	288	6
TAP	22	0	4
TAP	22	0	5
TAP	22	96	6
TAP	22	192	4
TAP	22	192	5
BRK	22	288	0
BRK	22	288	7
TAP	23	0	1
TAP	23	96	0
TAP	23	96	7
TAP	23	192	6
TAP	23	288	0
TAP	23	288	7
TAP	24	0	1
TAP	24	0	6
TAP	24	96	2
TAP	24	96	5
TAP	24	192	3
TAP	24	192	4
TAP	25	0	2
TAP	25	0	3
TAP	25	96	1
TAP	25	192	2
TAP	25	192	3
TAP	25	288	1
TAP	26	0	2
TAP	26	0	3
TAP	26	96	1
TAP	26	192	2
TAP	26	192	3
BRK	26	288	0
BRK	26	288	7
TAP	27	0	6
TAP	27	96	0
TAP	27	96	7
TAP	27	192	1
TAP	27	288	0
TAP	27	288	7
STR	28	0	0
SI_	28	0	0	96	192	3
STR	28	0	7
SI_	28	0	7	96	192	4
HLD	29	0	5	96
TAP	29	96	4
HLD	29	192	2	96
TAP	29	288	3
HLD	30	0	5	96
TAP	30	96	4
TAP	30	192	3
TAP	30	192	6
TAP	31	0	5
TAP	31	96	4
TAP	31	192	3
TAP	31	288	2
TAP	31	288	5
TAP	32	0	1
TAP	32	96	0
TAP	32	192	2
TAP	32	192	7
HLD	33	0	2	96
TAP	33	96	3
HLD	33	192	5	96
TAP	33	288	4
HLD	34	0	2	96
TAP	34	96	3
TAP	34	192	1
TAP	34	192	4
TAP	35	0	2
TAP	35	96	3
TAP	35	192	4
TAP	35	288	2
TAP	35	288	5
TAP	36	0	6
TAP	36	96	0
TAP	36	96	7
TAP	36	192	1
TAP	36	192	6
STR	37	0	7
SI_	37	0	7	96	192	3
STR	38	0	0
SI_	38	0	0	96	192	4
STR	39	0	6
SI_	39	0	6	96	192	3
TAP	40	0	2
TAP	40	96	2
TAP	40	192	1
TAP	40	192	3
STR	41	0	0
SI_	41	0	0	96	192	4
STR	42	0	6
SCL	42	0	6	96	192	3
STR	43	0	1
SCR	43	0	1	96	192	4
TAP	44	0	5
TAP	44	96	5
TAP	44	192	4
TAP	44	192	6
TAP	45	0	3
TAP	45	0	4
TAP	45	96	3
TAP	45	96	4
TAP	45	192	2
TAP	45	192	5
STR	46	0	4
SCR	46	0	4	96	480	3
STR	48	0	3
SCL	48	0	3	96	480	4
TAP	50	0	3
HLD	50	96	2	96
TAP	50	96	4
TAP	50	192	3
HLD	50	288	2	96
TAP	50	288	4
TAP	51	0	3
HLD	51	96	2	96
TAP	51	96	4
TAP	51	192	3
HLD	51	288	2	96
TAP	51	288	4
TAP	52	0	3
HLD	52	96	2	96
TAP	52	96	4
TAP	52	192	3
TAP	52	288	2
TAP	52	288	4
STR	53	0	3
SXR	53	0	3	96	192	0
STR	53	0	4
SXL	53	0	4	96	192	7
TAP	54	0	2
TAP	54	0	5
TAP	54	96	0
TAP	54	96	7
TAP	54	192	2
TAP	54	192	5
TAP	54	288	0
TAP	54	288	7
TAP	55	0	2
TAP	55	0	5
TAP	55	96	6
TAP	55	96	7
TAP	55	192	2
TAP	55	192	5
BRK	55	288	0
BRK	55	288	1
TAP	56	0	2
TAP	56	0	3
TAP	56	96	7
TAP	56	192	4
TAP	56	192	5
TAP	56	288	0
TAP	57	0	2
TAP	57	0	3
TAP	57	96	1
TAP	57	96	4
TAP	57	192	0
TAP	57	192	5
TAP	57	288	1
TAP	57	288	6
TAP	58	0	2
TAP	58	0	5
TAP	58	96	0
TAP	58	96	7
TAP	58	192	2
TAP	58	192	5
TAP	58	288	0
TAP	58	288	7
TAP	59	0	2
TAP	59	0	5
TAP	59	96	0
TAP	59	96	1
TAP	59	192	2
TAP	59	192	5
BRK	59	288	6
BRK	59	288	7
TAP	60	0	4
TAP	60	0	5
TAP	60	96	0
TAP	60	192	2
TAP	60	192	3
TAP	60	288	7
STR	61	0	0
SCR	61	0	0	96	144	3
STR	61	0	7
SCL	61	0	7	96	144	4
TAP	62	0	1
TAP	62	0	4
TAP	62	96	6
TAP	62	96	7
TAP	62	192	1
TAP	62	192	4
TAP	62	288	6
TAP	62	288	7
TAP	63	0	1
TAP	63	0	4
TAP	63	96	0
TAP	63	96	7
TAP	63	192	2
TAP	63	192	5
BRK	63	288	0
BRK	63	288	1
TAP	64	0	2
TAP	64	0	3
TAP	64	96	0
TAP	64	96	7
TAP	64	192	4
TAP	64	192	5
TAP	64	288	0
TAP	64	288	7
TAP	65	0	2
TAP	65	0	3
TAP	65	96	6
TAP	65	96	7
TAP	65	192	4
TAP	65	192	5
TAP	65	288	0
TAP	65	288	1
TAP	66	0	3
TAP	66	0	6
TAP	66	96	0
TAP	66	96	1
TAP	66	192	3
TAP	66	192	6
TAP	66	288	0
TAP	66	288	1
TAP	67	0	3
TAP	67	0	6
TAP	67	96	0
TAP	67	96	7
TAP	67	192	2
TAP	67	192	5
BRK	67	288	6
BRK	67	288	7
TAP	68	0	4
TAP	68	0	5
TAP	68	96	3
TAP	68	96	6
TAP	68	192	2
TAP	68	192	3
TAP	68	288	1
TAP	68	288	4
TAP	69	0	0
TAP	69	0	1
TAP	69	96	2
TAP	69	96	7
TAP	69	192	6
TAP	69	192	7
TAP	69	288	0
TAP	69	288	5
TAP	70	0	0
TAP	70	0	7
TAP	70	96	1
TAP	70	96	3
TAP	70	192	4
TAP	70	192	6
STR	70	288	0
SXL	70	288	0	96	384	3
STR	70	288	7
SXR	70	288	7	96	384	4

T_REC_TAP	291
T_REC_BRK	14
T_REC_XTP	0
T_REC_HLD	19
T_REC_XHO	0
T_REC_STR	16
T_REC_BST	0
T_REC_XST	0
T_REC_TTP	0
T_REC_THO	0
T_REC_SLD	16
T_REC_ALL	356
T_NUM_TAP	307
T_NUM_BRK	14
T_NUM_HLD	19
T_NUM_SLD	16
T_NUM_ALL	356
T_JUDGE_TAP	321
T_JUDGE_HLD	66
T_JUDGE_SLD	16
T_JUDGE_ALL	403
TTM_EACHPAIRS	130
TTM_SCR_TAP	153500
TTM_SCR_BRK	36400
TTM_SCR_HLD	19000
TTM_SCR_SLD	24000
TTM_SCR_ALL	232900
TTM_SCR_S	224600
TTM_SCR_SS	231500
TTM_RAT_ACV	10060

