VERSION	0.00.00	1.03.00
FES_MODE	0
BPM_DEF	128.000	128.000	128.000	128.000
MET_DEF	4	4
RESOLUTION	384
CLK_DEF	384
COMPATIBLE_CODE	MA2

BPM	0	0	128.000
MET	0	0	4	4

HLD	5	0	7	192
HLD	6	0	6	192
HLD	7	0	5	192
HLD	8	0	4	192
TAP	9	0	3
TAP	9	192	3
TAP	10	0	2
TAP	10	192	2
TAP	11	0	1
TAP	11	192	1
TAP	12	0	0
TAP	12	192	0
TAP	13	0	7
TAP	13	96	7
TAP	13	192	7
TAP	14	0	0
TAP	14	96	0
TAP	14	192	0
TAP	14	192	7
TAP	15	0	1
TAP	15	96	1
TAP	15	192	1
TAP	16	0	2
TAP	16	96	2
TAP	16	192	2
TAP	16	192	3
TAP	17	0	3
TAP	17	96	3
TAP	17	192	3
TAP	18	0	4
TAP	18	96	4
TAP	18	192	3
TAP	18	192	4
TAP	19	0	5
TAP	19	96	5
TAP	19	192	5
TAP	20	0	6
TAP	20	96	6
TAP	20	192	6
TAP	20	192	7
TAP	21	0	0
TAP	21	96	0
TAP	21	192	0
TAP	22	0	7
TAP	22	96	7
TAP	22	192	0
TAP	22	192	7
TAP	23	0	6
TAP	23	96	6
TAP	23	192	6
TAP	24	0	5
TAP	24	96	5
TAP	24	192	4
TAP	24	192	5
TAP	25	0	4
TAP	25	96	4
TAP	25	192	4
TAP	26	0	3
TAP	26	96	3
TAP	26	192	3
TAP	26	192	4
TAP	27	0	2
TAP	27	96	2
TAP	27	192	2
TAP	28	0	1
TAP	28	96	1
TAP	28	192	0
TAP	28	192	1
STR	29	0	7
SI_	29	0	7	96	288	4
STR	31	0	0
SI_	31	0	0	96	288	3
STR	33	0	4
SI_	33	0	4	96	288	7
STR	35	0	3
SI_	35	0	3	96	288	0
HLD	37	0	7	192
HLD	38	0	6	192
HLD	39	0	5	192
TAP	40	0	3
TAP	40	0	4
TAP	40	96	3
TAP	40	96	4
TAP	40	192	3
TAP	40	192	4
HLD	41	0	3	192
HLD	42	0	2	192
HLD	43	0	1	192
TAP	44	0	0
TAP	44	0	7
TAP	44	96	0
TAP	44	96	7
TAP	44	192	0
TAP	44	192	7
TAP	45	0	0
TAP	45	0	7
TAP	45	96	0
TAP	45	96	7
BRK	45	192	0
BRK	45	192	7
STR	46	0	1
SI_	46	0	1	96	288	5
STR	48	0	6
SI_	48	0	6	96	288	2
STR	50	0	1
SI_	50	0	1	96	288	4
STR	52	0	6
SI_	52	0	6	96	288	3
TAP	54	0	0
TAP	54	96	0
TAP	54	192	1
TAP	54	288	1
TAP	55	0	2
TAP	55	96	2
TAP	55	192	2
TAP	55	192	3
TAP	56	0	3
TAP	56	96	3
TAP	56	192	4
TAP	56	288	4
TAP	57	0	5
TAP	57	96	5
TAP	57	192	4
TAP	57	192	5
TAP	58	0	6
TAP	58	96	6
TAP	58	192	7
TAP	58	288	7
TAP	59	0	0
TAP	59	96	0
TAP	59	192	0
TAP	59	192	7
TAP	60	0	1
TAP	60	96	1
TAP	60	192	2
TAP	60	288	2
TAP	61	0	3
TAP	61	96	3
TAP	61	192	3
TAP	61	192	4
TAP	62	0	4
TAP	62	96	4
TAP	62	192	3
TAP	62	288	3
TAP	63	0	2
TAP	63	0	3
TAP	63	96	2
TAP	63	96	3
TAP	63	192	2
TAP	63	192	3
TAP	64	0	1
TAP	64	96	1
TAP	64	192	0
TAP	64	288	0
TAP	65	0	0
TAP	65	0	7
TAP	65	96	0
TAP	65	96	7
TAP	65	192	0
TAP	65	192	7
TAP	66	0	6
TAP	66	96	6
TAP	66	192	5
TAP	66	288	5
TAP	67	0	3
TAP	67	0	4
TAP	67	96	3
TAP	67	96	4
TAP	67	192	3
TAP	67	192	4
TAP	68	0	2
TAP	68	96	2
TAP	68	192	1
TAP	68	288	1
TAP	69	0	0
TAP	69	0	7
TAP	69	96	0
TAP	69	96	7
TAP	69	192	0
TAP	69	192	7
STR	70	0	0
SI_	70	0	0	96	288	3
STR	70	0	7
SI_	70	0	7	96	288	4

T_REC_TAP	152
T_REC_BRK	2
T_REC_XTP	0
T_REC_HLD	10
T_REC_XHO	0
T_REC_STR	10
T_REC_BST	0
T_REC_XST	0
T_REC_TTP	0
T_REC_THO	0
T_REC_SLD	10
T_REC_ALL	184
T_NUM_TAP	162
T_NUM_BRK	2
T_NUM_HLD	10
T_NUM_SLD	10
T_NUM_ALL	184
T_JUDGE_TAP	164
T_JUDGE_HLD	40
T_JUDGE_SLD	10
T_JUDGE_ALL	214
TTM_EACHPAIRS	34
TTM_SCR_TAP	81000
TTM_SCR_BRK	5200
TTM_SCR_HLD	10000
TTM_SCR_SLD	15000
TTM_SCR_ALL	111200
TTM_SCR_S	107700
TTM_SCR_SS	111000
TTM_RAT_ACV	10018

