VERSION	0.00.00	1.03.00
FES_MODE	0
BPM_DEF	190.000	216.000	216.000	190.000
MET_DEF	4	4
RESOLUTION	384
CLK_DEF	384
COMPATIBLE_CODE	MA2

BPM	0	0	190.000
BPM	7	0	216.000
MET	0	0	4	4

HLD	1	288	0	384
TAP	1	352	5
TAP	1	368	4
TAP	2	0	3
TAP	2	192	1
HLD	2	288	6	480
TAP	3	0	1
TAP	3	16	2
TAP	3	32	3
TAP	3	144	5
TAP	4	0	0
TAP	4	16	1
HLD	4	32	2	352
TAP	4	192	0
TAP	4	288	7
TAP	5	0	6
TAP	5	16	5
HLD	5	32	4	128
STR	5	160	3
SCR	5	160	3	96	416	2
HLD	7	0	4	96
TAP	7	96	3
TAP	7	160	4
HLD	7	192	3	96
TAP	7	288	4
TAP	7	352	3
HLD	8	0	5	96
TAP	8	96	3
TAP	8	160	5
HLD	8	192	2	96
TAP	8	288	4
TAP	8	352	2
TAP	9	0	4
TAP	9	64	3
TAP	9	96	4
TAP	9	160	4
TAP	9	160	5
TAP	9	256	3
TAP	9	256	4
TAP	9	352	2
TAP	9	352	3
TAP	10	96	0
TAP	10	192	1
TAP	10	288	2
TAP	11	0	1
TAP	11	0	3
TAP	11	64	2
TAP	11	96	3
TAP	11	160	2
TAP	11	160	4
TAP	11	256	3
TAP	11	256	5
TAP	11	352	4
TAP	11	352	6
TAP	12	64	7
TAP	12	96	0
TAP	12	192	0
TAP	12	192	1
TAP	12	288	2
TAP	12	288	7
STR	13	0	6
SCL	13	0	6	96	48	3
TAP	13	96	7
STR	13	192	1
SCR	13	192	1	96	48	4
TAP	13	288	0
TAP	14	0	7
STR	14	96	2
SUR	14	96	2	96	96	7
STR	14	96	6
SCL	14	96	6	96	96	3
TAP	14	160	2
TAP	14	160	6
TAP	14	336	0
TAP	15	0	1
TAP	15	0	5
TAP	15	48	2
TAP	15	48	6
TAP	15	144	3
TAP	15	144	7
TAP	15	192	2
TAP	15	192	6
TAP	15	288	1
TAP	15	288	5
STR	15	336	2
SXR	15	336	2	96	528	7
STR	15	336	6
SXR	15	336	6	96	528	3
TAP	18	0	3
TAP	18	0	4
TAP	18	96	4
TAP	18	160	4
TAP	18	192	3
TAP	18	256	3
TAP	18	288	4
TAP	18	352	4
HLD	19	0	3	96
TAP	19	96	2
HLD	19	192	5	96
TAP	19	288	6
HLD	20	0	1	96
TAP	20	96	2
HLD	20	192	7	96
TAP	20	288	6
HLD	21	0	0	96
TAP	21	96	1
HLD	21	192	6	96
TAP	21	288	5
HLD	22	0	2	96
TAP	22	96	1
HLD	22	192	4	96
TAP	22	288	5
STR	23	0	3
SCL	23	0	3	96	96	0
STR	23	96	0
SCL	23	96	0	96	96	5
STR	23	192	5
SCL	23	192	5	96	96	2
TAP	23	288	2
STR	24	0	6
SCR	24	0	6	96	96	1
STR	24	96	1
SCR	24	96	1	96	96	4
STR	24	192	4
SCR	24	192	4	96	96	7
TAP	24	288	7
TAP	25	0	3
TAP	25	64	3
TAP	25	96	4
TAP	25	160	4
TAP	25	192	2
TAP	25	256	2
TAP	25	288	5
TAP	25	352	5
TAP	26	0	3
TAP	26	0	4
TAP	26	96	0
TAP	26	96	7
TAP	26	192	3
TAP	26	192	4
TAP	26	288	1
TAP	26	288	6
STR	27	0	0
SUR	27	0	0	96	48	4
TAP	27	96	7
STR	27	192	7
SUL	27	192	7	96	48	3
TAP	27	288	0
STR	28	0	1
SCR	28	0	1	96	48	4
TAP	28	96	6
STR	28	192	6
SCL	28	192	6	96	48	3
TAP	28	288	1
STR	29	0	2
SCL	29	0	2	96	48	7
TAP	29	96	4
STR	29	192	5
SCR	29	192	5	96	48	0
TAP	29	288	3
STR	30	0	3
SUL	30	0	3	96	48	7
TAP	30	96	5
STR	30	192	4
SUR	30	192	4	96	48	0
TAP	30	288	2
TAP	31	0	3
TAP	31	64	3
TAP	31	96	4
TAP	31	160	4
TAP	31	192	5
TAP	31	256	5
TAP	31	288	6
TAP	31	352	6
TAP	32	0	7
TAP	32	64	7
TAP	32	96	0
TAP	32	160	0
TAP	32	192	1
TAP	32	256	1
TAP	32	288	2
TAP	32	352	2
TAP	33	0	3
TAP	33	32	4
TAP	33	64	3
TAP	33	96	5
TAP	33	128	2
TAP	33	160	5
TAP	33	192	1
TAP	33	224	6
TAP	33	256	1
TAP	33	288	7
TAP	34	0	1
TAP	34	0	6
BRK	34	96	7
BRK	34	192	7
BRK	34	288	7
STR	35	0	7
SI_	35	0	7	96	48	3
TAP	35	64	7
TAP	35	96	0
STR	35	192	0
SI_	35	192	0	96	48	4
TAP	35	256	0
TAP	35	288	7
STR	36	0	6
SI_	36	0	6	96	48	3
TAP	36	64	6
TAP	36	96	7
STR	36	192	1
SI_	36	192	1	96	48	4
TAP	36	256	1
TAP	36	288	0
TAP	37	0	7
HLD	37	96	0	96
HLD	37	96	6	96
TAP	37	288	4
TAP	37	288	5
STR	37	352	4
SUL	37	352	4	96	224	1
TAP	37	352	5
TAP	38	192	6
TAP	38	288	5
STR	39	0	4
SCR	39	0	4	96	96	7
STR	39	96	7
SCR	39	96	7	96	96	2
STR	39	192	2
SCR	39	192	2	96	96	5
TAP	39	288	5
STR	40	0	1
SCL	40	0	1	96	96	6
STR	40	96	6
SCL	40	96	6	96	96	3
STR	40	192	3
SCL	40	192	3	96	96	0
TAP	40	288	0
TAP	41	0	4
TAP	41	64	4
TAP	41	96	3
TAP	41	160	3
TAP	41	192	5
TAP	41	256	5
TAP	41	288	2
TAP	41	352	2
TAP	42	0	3
TAP	42	0	4
HLD	42	64	4	96
TAP	42	160	3
TAP	42	192	4
TAP	42	288	1
TAP	42	288	6
STR	43	0	7
SUL	43	0	7	96	48	3
TAP	43	64	7
TAP	43	96	0
STR	43	192	0
SUR	43	192	0	96	48	4
TAP	43	256	0
TAP	43	288	7
STR	44	0	6
SCL	44	0	6	96	48	3
TAP	44	64	6
TAP	44	96	7
STR	44	192	1
SCR	44	192	1	96	48	4
TAP	44	256	1
TAP	44	288	0
STR	45	0	5
SCR	45	0	5	96	48	0
TAP	45	64	5
TAP	45	96	4
STR	45	192	2
SCL	45	192	2	96	48	7
TAP	45	256	2
TAP	45	288	3
STR	46	0	4
SUR	46	0	4	96	48	0
TAP	46	64	4
TAP	46	96	3
STR	46	192	3
SUL	46	192	3	96	48	7
TAP	46	256	3
TAP	46	288	4
TAP	47	0	4
TAP	47	64	4
TAP	47	96	3
TAP	47	160	3
TAP	47	192	2
TAP	47	256	2
TAP	47	288	1
TAP	47	352	1
TAP	48	0	0
TAP	48	64	0
TAP	48	96	7
TAP	48	160	7
TAP	48	192	6
TAP	48	256	6
TAP	48	288	5
TAP	48	352	5
TAP	49	0	4
TAP	49	0	6
TAP	49	96	3
TAP	49	160	2
TAP	49	160	4
TAP	49	256	5
TAP	49	288	3
TAP	50	0	2
TAP	50	0	4
TAP	50	96	3
TAP	50	96	5
TAP	50	192	0
TAP	50	256	7
BRK	50	352	1
BRK	50	352	6
TAP	51	96	0
TAP	51	96	7
TAP	51	192	1
TAP	51	192	6
TAP	51	288	2
TAP	51	288	5
STR	52	0	2
SCR	52	0	2	96	48	4
TAP	52	96	6
STR	52	192	6
SUL	52	192	6	96	48	2
TAP	52	288	1
STR	53	0	1
SXR	53	0	1	96	192	4
HLD	53	288	7	96
HLD	54	0	6	96
HLD	54	96	5	96
HLD	54	192	4	96
TAP	54	288	3
HLD	55	0	1	96
HLD	55	96	2	96
HLD	55	192	3	96
TAP	55	288	4
TAP	56	0	3
TAP	56	0	5
TAP	56	64	3
TAP	56	64	5
TAP	56	160	4
TAP	56	192	3
TAP	56	288	2
TAP	56	288	4
TAP	56	352	2
TAP	56	352	4
TAP	57	96	0
TAP	57	96	7
TAP	57	192	3
TAP	57	192	4
TAP	57	288	1
TAP	57	288	6
TAP	58	0	3
TAP	58	96	2
TAP	58	96	4
TAP	58	192	4
TAP	58	288	3
TAP	58	288	5
TAP	59	0	2
TAP	59	96	1
TAP	59	96	3
TAP	59	192	5
TAP	59	288	4
TAP	59	288	6
STR	60	0	0
SCR	60	0	0	96	96	3
STR	60	96	3
SCR	60	96	3	96	96	6
STR	60	192	6
SCR	60	192	6	96	96	1
STR	60	288	1
SUR	60	288	1	96	192	4
HLD	61	0	5	96
TAP	61	192	6
TAP	61	288	5
TAP	61	288	7
TAP	62	0	0
TAP	62	0	6
TAP	62	64	0
TAP	62	64	6
TAP	62	160	3
TAP	62	192	4
TAP	62	288	1
TAP	62	288	7
TAP	62	352	1
TAP	62	352	7
TAP	63	64	4
TAP	63	96	3
TAP	63	160	2
TAP	63	192	4
TAP	63	256	5
TAP	63	288	3
TAP	63	352	1
TAP	64	0	0
TAP	64	0	2
TAP	64	64	0
TAP	64	64	2
TAP	64	160	4
TAP	64	160	6
TAP	64	256	1
TAP	64	256	3
STR	64	352	5
SXR	64	352	5	96	224	2
TAP	64	352	7
BRK	65	96	0
BRK	65	192	0
BRK	65	288	0
STR	66	0	1
SCR	66	0	1	96	48	4
TAP	66	64	1
HLD	66	96	0	96
STR	66	192	5
SCL	66	192	5	96	48	2
TAP	66	256	5
HLD	66	288	6	96
TAP	67	0	1
STR	67	64	1
SUR	67	64	1	96	128	4
TAP	67	96	7
TAP	67	160	7
TAP	67	288	6
STR	68	0	6
SCL	68	0	6	96	48	3
TAP	68	64	6
HLD	68	96	7	96
STR	68	192	2
SCR	68	192	2	96	48	5
TAP	68	256	2
HLD	68	288	1	96
TAP	69	0	6
STR	69	64	6
SUL	69	64	6	96	128	3
TAP	69	96	0
TAP	69	160	0
STR	69	288	1
SI_	69	288	1	96	48	5
STR	70	0	0
SI_	70	0	0	96	48	4
STR	70	96	7
SI_	70	96	7	96	48	3
STR	70	192	6
SI_	70	192	6	96	48	2
STR	70	288	5
SI_	70	288	5	96	48	1
STR	71	0	4
SI_	71	0	4	96	48	0
STR	71	96	3
SI_	71	96	3	96	48	7
STR	71	192	2
SI_	71	192	2	96	48	6
TAP	71	288	1
STR	72	0	3
SUL	72	0	3	96	48	7
STR	72	0	7
SUL	72	0	7	96	48	3
STR	72	192	0
SCR	72	192	0	96	48	3
STR	72	192	4
SCR	72	192	4	96	48	7
TAP	73	0	2
TAP	73	0	5
STR	73	64	2
SXR	73	64	2	96	128	4
STR	73	64	5
SXL	73	64	5	96	128	3
TAP	73	160	2
TAP	73	160	5
BRK	74	0	0
BRK	74	0	7
BRK	74	96	0
BRK	74	96	7
TAP	74	192	1
TAP	74	224	7
TAP	74	256	0
TAP	74	288	6
TAP	74	320	0
TAP	74	352	7
TAP	75	0	1
TAP	75	0	6
TAP	75	96	0
TAP	75	96	7
TAP	75	160	2
TAP	75	160	5
TAP	75	256	4
TAP	75	288	3
BRK	76	0	3
BRK	76	0	4
BRK	76	96	3
BRK	76	96	4
TAP	76	192	2
TAP	76	224	4
TAP	76	256	3
TAP	76	288	5
TAP	76	320	3
TAP	76	352	4
TAP	77	0	2
TAP	77	0	5
TAP	77	96	3
TAP	77	96	4
TAP	77	160	1
TAP	77	160	6
TAP	77	256	7
TAP	77	288	0
TAP	77	352	0
TAP	78	0	7
STR	78	96	1
SXL	78	96	1	96	48	3
TAP	78	96	6
TAP	78	192	0
TAP	78	192	1
TAP	78	288	7
TAP	79	0	0
TAP	79	96	1
STR	79	96	6
SXR	79	96	6	96	48	4
TAP	79	192	6
TAP	79	192	7
TAP	79	288	0
HLD	80	0	0	336
TAP	80	48	7
TAP	80	144	3
TAP	80	240	1
TAP	80	336	5
HLD	81	0	6	128
TAP	81	0	7
TAP	81	64	5
TAP	81	128	4
HLD	81	192	2	128
TAP	81	192	3
TAP	81	256	1
TAP	81	320	0
TAP	82	0	3
TAP	82	0	7
TAP	82	64	6
TAP	82	96	0
TAP	82	160	1
TAP	82	192	7
TAP	82	256	6
STR	82	288	0
SCR	82	288	0	96	288	7
TAP	84	0	0
TAP	84	96	1
TAP	84	96	7
TAP	84	192	7
TAP	84	288	0
TAP	84	288	6
TAP	85	0	2
TAP	85	96	1
TAP	85	96	3
TAP	85	192	5
TAP	85	288	4
TAP	85	288	6
HLD	86	0	1	64
TAP	86	64	0
TAP	86	96	2
TAP	86	96	7
HLD	86	192	6	64
TAP	86	256	7
TAP	86	288	0
TAP	86	288	5
HLD	87	0	2	64
TAP	87	64	3
TAP	87	96	1
TAP	87	96	4
HLD	87	192	5	64
TAP	87	256	4
TAP	87	288	3
TAP	87	288	6
TAP	88	0	1
TAP	88	0	3
TAP	88	64	2
TAP	88	96	3
TAP	88	160	3
TAP	88	192	4
TAP	88	256	4
TAP	88	288	5
TAP	88	352	5
TAP	89	0	4
TAP	89	0	6
TAP	89	64	5
TAP	89	96	4
TAP	89	160	4
TAP	89	192	3
TAP	89	256	3
TAP	89	288	2
TAP	89	352	2
TAP	90	0	1
TAP	90	0	3
TAP	90	96	4
TAP	90	96	6
TAP	90	192	0
TAP	90	256	7
BRK	90	352	3
BRK	90	352	4
BRK	91	64	2
BRK	91	64	5
BRK	91	160	1
BRK	91	160	6
TAP	91	256	0
TAP	91	288	7
TAP	91	320	0
TAP	91	352	7
TAP	92	0	1
TAP	92	0	6
TAP	92	96	1
TAP	92	96	6
TAP	92	192	2
TAP	92	224	3
TAP	92	256	2
TAP	92	288	4
TAP	92	320	3
TAP	92	352	4
HLD	93	0	2	64
TAP	93	64	3
TAP	93	96	2
TAP	93	160	1
TAP	93	160	3
TAP	93	256	4
TAP	93	288	3
TAP	93	288	5
TAP	94	0	1
TAP	94	0	6
TAP	94	96	1
TAP	94	96	6
TAP	94	192	5
TAP	94	224	4
TAP	94	256	5
TAP	94	288	3
TAP	94	320	4
TAP	94	352	3
HLD	95	0	5	64
TAP	95	64	4
TAP	95	96	5
TAP	95	160	4
TAP	95	160	6
TAP	95	256	3
TAP	95	288	2
TAP	95	288	4
TAP	95	352	1
TAP	96	0	0
STR	96	96	0
SF_	96	96	0	96	48	4
TAP	96	96	1
BRK	96	192	0
TAP	96	288	2
TAP	96	288	6
TAP	97	0	7
TAP	97	96	6
STR	97	96	7
SF_	97	96	7	96	48	3
BRK	97	192	7
TAP	97	288	1
TAP	97	288	5
HLD	98	0	7	336
TAP	98	48	0
TAP	98	144	4
TAP	98	240	6
TAP	98	336	2
BRK	99	0	0
HLD	99	0	1	128
TAP	99	64	2
TAP	99	128	3
BRK	99	192	4
HLD	99	192	5	128
TAP	99	256	6
TAP	99	320	7
TAP	100	0	0
TAP	100	0	4
TAP	100	64	4
TAP	100	96	3
TAP	100	160	2
TAP	100	160	3
TAP	100	256	3
TAP	100	256	4
TAP	100	352	4
TAP	100	352	5
TAP	101	96	0
TAP	101	192	1
TAP	101	288	2
TAP	102	0	2
TAP	102	0	4
TAP	102	64	3
TAP	102	96	4
TAP	102	160	3
TAP	102	160	5
TAP	102	256	2
TAP	102	256	4
TAP	102	352	1
TAP	102	352	3
TAP	103	64	0
TAP	103	96	7
TAP	103	192	6
TAP	103	192	7
TAP	103	288	0
TAP	103	288	5
STR	104	0	1
SCR	104	0	1	96	48	4
TAP	104	96	0
STR	104	192	6
SCL	104	192	6	96	48	3
TAP	104	288	7
TAP	105	0	0
STR	105	96	1
SCR	105	96	1	96	96	4
STR	105	96	5
SUL	105	96	5	96	96	0
TAP	105	160	1
TAP	105	160	5
TAP	105	336	7
TAP	106	0	2
TAP	106	0	6
TAP	106	48	1
TAP	106	48	5
TAP	106	144	0
TAP	106	144	4
TAP	106	192	1
TAP	106	192	5
TAP	106	288	2
TAP	106	288	6
STR	106	336	1
SXL	106	336	1	96	528	4
STR	106	336	5
SXL	106	336	5	96	528	0
TAP	109	0	3
TAP	109	0	4
TAP	109	64	4
TAP	109	96	3
TAP	109	160	3
TAP	109	192	4
TAP	109	288	3
TAP	109	288	4
TAP	110	0	3
TAP	110	0	4
TAP	110	64	3
TAP	110	96	4
STR	110	160	3
SI_	110	160	3	96	48	7
TAP	110	160	5
BRK	110	288	0

T_REC_TAP	511
T_REC_BRK	27
T_REC_XTP	0
T_REC_HLD	43
T_REC_XHO	0
T_REC_STR	80
T_REC_BST	0
T_REC_XST	0
T_REC_TTP	0
T_REC_THO	0
T_REC_SLD	80
T_REC_ALL	741
T_NUM_TAP	591
T_NUM_BRK	27
T_NUM_HLD	43
T_NUM_SLD	80
T_NUM_ALL	741
T_JUDGE_TAP	618
T_JUDGE_HLD	121
T_JUDGE_SLD	80
T_JUDGE_ALL	819
TTM_EACHPAIRS	130
TTM_SCR_TAP	295500
TTM_SCR_BRK	70200
TTM_SCR_HLD	43000
TTM_SCR_SLD	120000
TTM_SCR_ALL	528700
TTM_SCR_S	510250
TTM_SCR_SS	526000
TTM_RAT_ACV	10051

