VERSION	0.00.00	1.03.00
FES_MODE	0
BPM_DEF	190.000	216.000	216.000	190.000
MET_DEF	4	4
RESOLUTION	384
CLK_DEF	384
COMPATIBLE_CODE	MA2

BPM	0	0	190.000
BPM	7	0	216.000
MET	0	0	4	4

TAP	7	0	3
TAP	7	192	3
TAP	8	0	3
TAP	8	192	3
HLD	9	0	3	96
HLD	9	0	4	96
TAP	9	160	2
TAP	9	160	3
TAP	9	256	2
TAP	9	256	3
TAP	9	352	2
TAP	9	352	3
TAP	10	96	0
TAP	10	192	1
TAP	10	288	2
HLD	11	0	2	96
HLD	11	0	5	96
TAP	11	160	4
TAP	11	160	5
TAP	11	256	4
TAP	11	256	5
TAP	11	352	4
TAP	11	352	5
TAP	12	96	4
TAP	12	192	2
TAP	12	192	6
TAP	13	0	2
TAP	13	96	3
TAP	13	192	5
TAP	13	288	4
TAP	14	0	1
TAP	14	96	3
TAP	14	192	6
TAP	14	288	4
TAP	15	0	2
TAP	15	0	3
TAP	15	48	2
TAP	15	48	3
TAP	15	144	4
TAP	15	144	5
TAP	15	192	4
TAP	15	192	5
TAP	15	288	0
TAP	15	288	1
TAP	15	336	0
STR	15	336	1
SCR	15	336	1	96	336	6
TAP	17	192	3
TAP	17	192	4
TAP	18	0	1
TAP	18	0	6
TAP	18	96	0
TAP	18	192	0
TAP	18	288	0
HLD	19	0	5	96
TAP	19	96	3
HLD	19	192	2	96
TAP	19	288	4
HLD	20	0	5	96
TAP	20	96	3
TAP	20	192	2
TAP	20	288	2
TAP	20	288	4
HLD	21	0	6	96
TAP	21	96	4
HLD	21	192	1	96
TAP	21	288	3
HLD	22	0	6	96
TAP	22	96	4
TAP	22	192	1
TAP	22	288	1
TAP	22	288	3
TAP	23	0	5
TAP	23	96	4
TAP	23	192	5
TAP	23	288	3
TAP	23	288	6
TAP	24	0	2
TAP	24	96	3
TAP	24	192	2
TAP	24	288	1
TAP	24	288	4
HLD	25	0	5	96
TAP	25	96	4
HLD	25	192	2	96
TAP	25	288	3
TAP	26	0	5
TAP	26	96	4
TAP	26	96	5
TAP	26	192	3
TAP	26	192	6
TAP	26	288	4
TAP	26	288	5
HLD	27	0	1	288
TAP	27	96	3
TAP	27	192	4
TAP	27	288	5
HLD	28	0	6	288
TAP	28	96	4
TAP	28	192	3
TAP	28	288	2
HLD	29	0	1	288
TAP	29	96	2
TAP	29	192	3
TAP	29	288	4
HLD	30	0	6	288
TAP	30	96	5
TAP	30	192	4
TAP	30	288	3
STR	31	0	0
SI_	31	0	0	96	144	5
STR	31	0	1
SI_	31	0	1	96	144	4
HLD	32	0	5	96
HLD	32	96	4	96
HLD	32	192	3	96
TAP	32	288	2
STR	33	0	0
SCR	33	0	0	96	144	3
STR	33	0	7
SCL	33	0	7	96	144	4
TAP	34	0	1
TAP	34	0	6
BRK	34	96	0
BRK	34	192	0
BRK	34	288	0
TAP	35	0	1
TAP	35	96	3
TAP	35	96	5
TAP	35	192	6
TAP	35	288	2
TAP	35	288	4
TAP	36	0	1
TAP	36	96	4
TAP	36	96	5
TAP	36	192	6
TAP	36	288	2
TAP	36	288	3
TAP	37	0	2
TAP	37	0	6
HLD	37	96	2	96
HLD	37	96	6	96
TAP	37	288	0
TAP	37	288	5
STR	37	352	0
SCR	37	352	0	96	128	2
STR	37	352	5
SCL	37	352	5	96	128	3
HLD	39	0	5	96
HLD	39	96	4	96
TAP	39	192	3
TAP	39	288	2
TAP	39	288	5
HLD	40	0	2	96
HLD	40	96	3	96
TAP	40	192	4
TAP	40	288	2
TAP	40	288	5
HLD	41	0	6	96
HLD	41	96	4	96
TAP	41	192	3
TAP	41	288	1
TAP	41	288	4
STR	42	0	1
SCR	42	0	1	96	128	3
STR	42	0	4
SCR	42	0	4	96	128	6
TAP	43	0	1
TAP	43	0	5
TAP	43	192	3
TAP	43	288	2
TAP	43	288	4
TAP	44	0	5
TAP	44	96	4
TAP	44	96	6
TAP	44	192	2
TAP	44	288	1
TAP	44	288	3
STR	45	0	7
SLL	45	0	7	96	192	3
SLR	45	0	7	96	192	3
STR	46	0	0
SLL	46	0	0	96	192	4
SLR	46	0	0	96	192	4
HLD	47	0	2	96
HLD	47	96	3	96
HLD	47	192	4	96
TAP	47	288	5
STR	48	0	0
SCR	48	0	0	96	144	3
STR	48	0	7
SCL	48	0	7	96	144	4
BRK	49	0	1
BRK	49	0	6
TAP	50	0	0
TAP	50	0	7
TAP	50	96	0
TAP	50	96	7
STR	50	192	0
SUL	50	192	0	96	256	3
STR	50	192	7
SCL	50	192	7	96	256	3
STR	52	0	0
SUR	52	0	0	96	160	4
STR	52	0	1
SCR	52	0	1	96	160	4
STR	53	0	6
SCL	53	0	6	96	160	3
STR	53	0	7
SI_	53	0	7	96	160	3
STR	54	0	0
SI_	54	0	0	96	160	4
STR	54	0	1
SCR	54	0	1	96	160	4
STR	55	0	6
SCL	55	0	6	96	160	3
STR	55	0	7
SUR	55	0	7	96	160	3
TAP	56	0	3
TAP	56	0	4
TAP	56	96	2
TAP	56	96	5
TAP	56	192	1
TAP	56	192	6
TAP	56	288	0
TAP	56	288	7
TAP	57	0	1
TAP	57	0	6
TAP	57	96	1
TAP	57	192	2
TAP	57	288	3
TAP	58	0	4
TAP	58	0	5
TAP	58	96	4
TAP	58	192	4
TAP	58	192	7
TAP	59	0	2
TAP	59	0	3
TAP	59	96	3
TAP	59	192	0
TAP	59	192	3
TAP	60	0	4
TAP	60	0	5
TAP	60	96	4
TAP	60	96	6
TAP	60	192	4
TAP	60	192	7
TAP	61	0	2
TAP	61	0	3
TAP	61	96	1
TAP	61	96	3
TAP	61	192	0
TAP	61	192	3
HLD	62	0	2	384
STR	62	0	6
SUL	62	0	6	96	288	3
TAP	63	192	1
TAP	63	192	6
TAP	64	0	2
TAP	64	0	5
TAP	64	64	2
TAP	64	64	5
TAP	64	160	0
TAP	64	160	7
TAP	64	256	0
TAP	64	256	7
HLD	64	352	0	128
HLD	64	352	7	128
BRK	65	192	1
BRK	65	192	6
STR	66	0	0
SI_	66	0	0	96	64	3
TAP	66	96	5
STR	66	192	7
SUL	66	192	7	96	64	3
TAP	66	288	1
STR	67	0	0
SCL	67	0	0	96	160	3
TAP	67	96	5
STR	68	0	7
SI_	68	0	7	96	64	4
TAP	68	96	2
STR	68	192	0
SUR	68	192	0	96	64	4
TAP	68	288	6
STR	69	0	7
SCR	69	0	7	96	160	4
TAP	69	96	2
HLD	70	0	4	96
HLD	70	96	5	96
HLD	70	192	6	96
HLD	70	288	7	96
HLD	71	0	0	96
HLD	71	96	1	96
HLD	71	192	2	96
TAP	71	288	3
STR	72	0	0
SUR	72	0	0	96	144	5
STR	72	0	1
SCR	72	0	1	96	144	4
TAP	73	0	4
TAP	73	0	5
TAP	73	64	4
TAP	73	64	5
BRK	73	160	3
BRK	73	160	6
TAP	74	0	2
TAP	74	0	7
HLD	74	96	2	192
HLD	74	96	7	192
STR	75	0	3
SXR	75	0	3	96	144	2
STR	75	0	4
SXL	75	0	4	96	144	5
TAP	76	0	0
TAP	76	0	5
HLD	76	96	0	192
HLD	76	96	5	192
STR	77	0	2
SXL	77	0	2	96	144	4
STR	77	0	6
SXL	77	0	6	96	144	0
STR	78	0	1
SCR	78	0	1	96	144	4
STR	78	0	7
SCL	78	0	7	96	144	4
STR	79	0	0
SCR	79	0	0	96	144	3
STR	79	0	6
SCL	79	0	6	96	144	3
TAP	80	0	1
TAP	80	0	6
TAP	80	48	1
TAP	80	48	6
TAP	80	144	0
TAP	80	144	7
TAP	80	240	0
TAP	80	240	7
TAP	80	336	0
TAP	80	336	7
TAP	81	0	1
TAP	81	0	6
TAP	81	192	3
TAP	81	192	4
HLD	82	0	2	96
HLD	82	0	5	96
HLD	82	144	0	96
HLD	82	144	7	96
TAP	82	288	2
STR	82	288	5
SUL	82	288	5	96	288	2
STR	84	0	1
SI_	84	0	1	96	64	3
TAP	84	96	5
STR	84	192	6
SI_	84	192	6	96	64	4
TAP	84	288	2
STR	85	0	1
SI_	85	0	1	96	64	3
TAP	85	96	5
STR	85	192	6
SI_	85	192	6	96	64	4
TAP	85	288	2
STR	86	0	1
SI_	86	0	1	96	64	4
TAP	86	96	5
STR	86	192	6
SI_	86	192	6	96	64	3
TAP	86	288	2
STR	87	0	1
SI_	87	0	1	96	64	4
TAP	87	96	5
STR	87	192	6
SI_	87	192	6	96	64	3
TAP	87	288	2
TAP	88	0	1
TAP	88	96	0
TAP	88	192	1
TAP	88	288	2
TAP	88	288	7
TAP	89	0	6
TAP	89	96	7
TAP	89	192	6
TAP	89	288	0
TAP	89	288	5
TAP	90	0	0
TAP	90	0	7
TAP	90	96	0
TAP	90	96	7
HLD	90	192	0	96
HLD	90	192	7	96
TAP	90	352	3
TAP	90	352	4
TAP	91	64	3
TAP	91	64	4
TAP	91	160	1
TAP	91	160	6
TAP	92	0	0
TAP	92	0	4
HLD	92	96	0	192
HLD	92	96	4	192
STR	93	0	5
SCR	93	0	5	96	176	2
SUR	93	0	5	96	176	2
TAP	94	0	3
TAP	94	0	7
TAP	94	96	3
TAP	94	96	7
TAP	94	192	4
TAP	94	192	5
TAP	94	288	3
TAP	94	288	7
STR	95	0	2
SCL	95	0	2	96	176	5
SUL	95	0	2	96	176	5
TAP	96	0	4
TAP	96	96	4
BRK	96	192	3
BRK	96	192	7
TAP	97	0	2
TAP	97	96	2
BRK	97	192	0
BRK	97	192	4
TAP	98	0	1
TAP	98	0	6
TAP	98	48	1
TAP	98	48	6
TAP	98	144	0
TAP	98	144	7
TAP	98	240	0
TAP	98	240	7
STR	98	336	0
SUL	98	336	0	96	192	2
STR	98	336	7
SCL	98	336	7	96	192	2
HLD	100	0	2	96
HLD	100	0	5	96
TAP	100	160	2
TAP	100	160	3
TAP	100	256	2
TAP	100	256	3
TAP	100	352	2
TAP	100	352	3
TAP	101	96	0
TAP	101	192	1
TAP	101	288	2
HLD	102	0	1	96
HLD	102	0	6	96
TAP	102	160	6
TAP	102	160	7
TAP	102	256	6
TAP	102	256	7
TAP	102	352	6
TAP	102	352	7
TAP	103	96	0
TAP	103	96	7
TAP	103	192	1
TAP	103	192	6
HLD	104	0	6	96
TAP	104	96	4
HLD	104	192	1	96
TAP	104	288	3
HLD	105	0	7	96
TAP	105	96	4
HLD	105	192	0	96
TAP	105	288	3
TAP	106	0	4
TAP	106	0	5
TAP	106	48	4
TAP	106	48	5
TAP	106	144	2
TAP	106	144	3
TAP	106	192	2
TAP	106	192	3
TAP	106	288	0
TAP	106	288	7
TAP	106	336	0
STR	106	336	7
SCL	106	336	7	96	336	1
TAP	108	192	3
STR	109	0	2
SCL	109	0	2	96	384	3
TAP	109	0	5
BRK	110	288	2
BRK	110	288	6

T_REC_TAP	296
T_REC_BRK	15
T_REC_XTP	0
T_REC_HLD	60
T_REC_XHO	0
T_REC_STR	55
T_REC_BST	0
T_REC_XST	0
T_REC_TTP	0
T_REC_THO	0
T_REC_SLD	59
T_REC_ALL	485
T_NUM_TAP	351
T_NUM_BRK	15
T_NUM_HLD	60
T_NUM_SLD	59
T_NUM_ALL	485
T_JUDGE_TAP	366
T_JUDGE_HLD	156
T_JUDGE_SLD	59
T_JUDGE_ALL	581
TTM_EACHPAIRS	136
TTM_SCR_TAP	175500
TTM_SCR_BRK	39000
TTM_SCR_HLD	60000
TTM_SCR_SLD	88500
TTM_SCR_ALL	363000
TTM_SCR_S	350700
TTM_SCR_SS	361500
TTM_RAT_ACV	10041

