VERSION	0.00.00	1.03.00
FES_MODE	0
BPM_DEF	190.000	216.000	216.000	190.000
MET_DEF	4	4
RESOLUTION	384
CLK_DEF	384
COMPATIBLE_CODE	MA2

BPM	0	0	190.000
BPM	7	0	216.000
MET	0	0	4	4

TAP	7	0	5
TAP	7	192	5
TAP	8	0	5
TAP	8	192	5
TAP	9	0	5
TAP	9	96	5
STR	9	192	4
SCR	9	192	4	96	288	7
TAP	11	0	1
TAP	11	96	1
STR	11	192	0
SCR	11	192	0	96	288	3
TAP	13	0	5
TAP	13	96	5
TAP	13	192	4
TAP	14	0	2
TAP	14	96	2
TAP	14	192	3
STR	15	0	3
SI_	15	0	3	96	288	0
STR	15	0	4
SI_	15	0	4	96	288	7
BST	16	192	1
SV_	16	192	1	96	288	3
BST	16	192	6
SV_	16	192	6	96	288	4
TAP	18	0	2
TAP	18	0	5
TAP	18	192	3
TAP	18	192	4
TAP	19	0	2
TAP	19	0	3
TAP	19	192	4
TAP	19	192	5
TAP	20	0	2
TAP	20	96	2
TAP	20	192	3
TAP	21	0	4
TAP	21	0	5
TAP	21	192	2
TAP	21	192	3
TAP	22	0	5
TAP	22	96	5
TAP	22	192	4
TAP	23	0	2
TAP	23	96	3
TAP	23	192	4
TAP	24	0	5
TAP	24	96	4
TAP	24	192	3
STR	25	0	2
SI_	25	0	2	96	288	7
TAP	25	0	3
TAP	26	192	6
TAP	26	192	7
TAP	27	0	1
TAP	27	96	1
TAP	27	192	0
TAP	28	0	6
TAP	28	0	7
TAP	28	192	0
TAP	28	192	1
TAP	29	0	6
TAP	29	96	6
TAP	29	192	7
TAP	30	0	0
TAP	30	0	1
TAP	30	192	6
TAP	30	192	7
TAP	31	0	0
TAP	31	96	7
TAP	31	192	6
TAP	32	0	7
TAP	32	96	0
STR	32	192	1
SXR	32	192	1	96	480	4
TAP	34	192	4
TAP	34	192	5
TAP	35	0	2
TAP	35	0	3
TAP	35	192	5
TAP	35	288	5
TAP	36	0	4
TAP	36	192	2
TAP	36	192	3
TAP	37	0	4
TAP	37	0	5
TAP	37	96	4
STR	37	96	5
SUR	37	96	5	96	384	2
TAP	39	0	2
TAP	39	96	3
TAP	39	192	4
TAP	40	0	5
TAP	40	96	4
TAP	40	192	3
STR	41	0	2
SI_	41	0	2	96	288	7
TAP	41	0	3
TAP	42	192	6
TAP	42	192	7
TAP	43	0	1
TAP	43	96	1
TAP	43	192	0
TAP	44	0	6
TAP	44	0	7
TAP	44	192	0
TAP	44	192	1
HLD	45	0	6	192
HLD	45	192	5	192
TAP	46	0	4
TAP	46	192	3
TAP	46	192	6
TAP	47	0	4
TAP	47	96	3
TAP	47	192	2
TAP	48	0	3
TAP	48	96	4
STR	48	192	5
SLR	48	192	5	96	384	4
TAP	50	0	2
TAP	50	96	2
TAP	50	192	2
TAP	50	192	3
TAP	51	0	0
TAP	51	0	1
TAP	51	192	2
TAP	51	288	3
TAP	52	0	4
TAP	52	192	4
TAP	52	192	5
TAP	53	0	1
TAP	53	0	3
TAP	53	192	4
TAP	53	192	6
TAP	54	0	1
TAP	54	96	1
TAP	54	192	2
TAP	54	288	2
TAP	55	0	3
TAP	55	96	3
TAP	55	192	4
TAP	55	288	4
HLD	56	0	3	192
TAP	56	192	4
TAP	57	0	2
TAP	57	0	5
TAP	57	192	6
TAP	57	288	6
TAP	58	0	6
TAP	58	0	7
TAP	58	192	4
TAP	58	192	5
TAP	59	0	6
TAP	59	96	7
TAP	59	192	0
TAP	60	0	0
TAP	60	0	1
TAP	60	192	5
TAP	60	192	7
TAP	61	0	0
TAP	61	0	2
TAP	61	192	0
TAP	61	192	5
STR	62	0	2
SCR	62	0	2	96	480	7
TAP	62	0	7
TAP	64	0	0
STR	64	0	5
SCR	64	0	5	96	192	7
BRK	65	96	0
BRK	65	192	0
BRK	65	288	0
TAP	66	0	1
TAP	66	96	0
STR	66	192	6
SCL	66	192	6	96	288	3
TAP	66	192	7
TAP	68	0	2
TAP	68	96	3
TAP	68	192	4
STR	68	192	5
SCR	68	192	5	96	288	0
TAP	70	0	1
TAP	70	96	0
TAP	70	192	2
TAP	70	192	7
TAP	71	0	6
TAP	71	96	7
TAP	71	192	0
TAP	71	192	5
TAP	72	0	2
TAP	72	96	3
TAP	72	192	5
TAP	72	288	4
TAP	73	0	3
TAP	73	96	4
TAP	73	192	2
TAP	73	192	5
TAP	74	0	5
TAP	74	96	4
BST	74	192	2
SCL	74	192	2	96	288	7
BST	74	192	3
SCR	74	192	3	96	288	6
TAP	76	0	6
TAP	76	96	7
BST	76	192	0
SCL	76	192	0	96	288	5
BST	76	192	1
SCR	76	192	1	96	288	4
TAP	78	0	4
TAP	78	96	3
TAP	78	96	5
TAP	78	192	2
TAP	78	192	6
TAP	79	0	3
TAP	79	96	2
TAP	79	96	4
TAP	79	192	1
TAP	79	192	5
TAP	80	0	4
TAP	80	96	5
TAP	80	192	3
TAP	80	288	2
STR	81	0	3
SXR	81	0	3	96	672	0
STR	81	0	4
SXL	81	0	4	96	672	7
TAP	83	192	0
TAP	83	192	7
HLD	84	0	1	192
HLD	84	192	2	192
HLD	85	0	3	192
TAP	85	192	4
HLD	86	0	6	192
HLD	86	192	5	192
HLD	87	0	4	192
TAP	87	192	3
HLD	88	0	3	192
TAP	88	192	2
HLD	89	0	4	192
TAP	89	192	5
TAP	90	0	3
TAP	90	0	4
TAP	90	96	3
TAP	90	96	4
TAP	90	192	2
TAP	90	192	5
STR	91	0	0
SI_	91	0	0	96	168	3
STR	91	0	7
SI_	91	0	7	96	168	4
TAP	92	0	4
TAP	92	96	5
TAP	92	192	6
TAP	92	192	7
TAP	93	0	0
TAP	93	0	2
TAP	93	192	5
TAP	93	192	7
TAP	94	0	0
TAP	94	96	1
TAP	94	192	2
TAP	94	192	3
TAP	95	0	4
TAP	95	0	6
TAP	95	192	1
TAP	95	192	3
TAP	96	0	5
TAP	96	96	5
TAP	96	192	4
TAP	96	192	5
TAP	97	0	2
TAP	97	96	2
TAP	97	192	2
TAP	97	192	3
TAP	98	0	5
TAP	98	96	4
TAP	98	96	5
TAP	98	192	2
TAP	98	288	2
TAP	98	288	3
STR	99	0	3
SI_	99	0	3	96	168	0
STR	99	0	4
SI_	99	0	4	96	168	7
TAP	100	0	6
TAP	100	96	6
TAP	100	192	6
STR	100	192	7
SCR	100	192	7	96	288	2
TAP	102	0	1
TAP	102	96	1
STR	102	192	0
SCL	102	192	0	96	288	5
TAP	102	192	1
TAP	104	0	5
TAP	104	96	5
TAP	104	192	4
TAP	104	192	5
TAP	105	0	2
TAP	105	96	2
TAP	105	192	2
TAP	105	192	3
STR	106	0	3
SI_	106	0	3	96	288	0
STR	106	0	4
SI_	106	0	4	96	288	7
BST	107	192	1
SV_	107	192	1	96	288	3
BST	107	192	6
SV_	107	192	6	96	288	4
TAP	109	0	2
TAP	109	96	3
TAP	109	192	5
TAP	109	288	4
TAP	110	0	3
TAP	110	96	4
TAP	110	192	3
BRK	110	288	2
BRK	110	288	5

T_REC_TAP	244
T_REC_BRK	5
T_REC_XTP	0
T_REC_HLD	11
T_REC_XHO	0
T_REC_STR	23
T_REC_BST	8
T_REC_XST	0
T_REC_TTP	0
T_REC_THO	0
T_REC_SLD	31
T_REC_ALL	322
T_NUM_TAP	267
T_NUM_BRK	13
T_NUM_HLD	11
T_NUM_SLD	31
T_NUM_ALL	322
T_JUDGE_TAP	280
T_JUDGE_HLD	44
T_JUDGE_SLD	31
T_JUDGE_ALL	355
TTM_EACHPAIRS	73
TTM_SCR_TAP	133500
TTM_SCR_BRK	33800
TTM_SCR_HLD	11000
TTM_SCR_SLD	46500
TTM_SCR_ALL	224800
TTM_SCR_S	216800
TTM_SCR_SS	223500
TTM_RAT_ACV	10058

