VERSION	0.00.00	1.03.00
FES_MODE	0
BPM_DEF	190.000	216.000	216.000	190.000
MET_DEF	4	4
RESOLUTION	384
CLK_DEF	384
COMPATIBLE_CODE	MA2

BPM	0	0	190.000
BPM	7	0	216.000
MET	0	0	4	4

STR	2	0	0
SI_	2	0	0	96	672	4
TAP	9	0	0
TAP	9	192	0
TAP	10	0	1
TAP	10	192	1
TAP	11	0	2
TAP	11	192	2
TAP	12	0	3
TAP	12	192	3
TAP	12	192	4
TAP	13	0	4
TAP	13	192	4
TAP	14	0	5
TAP	14	192	5
TAP	15	0	6
TAP	15	192	6
TAP	16	0	7
TAP	16	192	0
TAP	16	192	7
TAP	19	96	0
TAP	19	288	0
TAP	20	96	1
TAP	20	288	1
TAP	21	96	2
TAP	21	288	2
TAP	22	96	3
TAP	22	96	4
TAP	22	288	3
TAP	22	288	4
TAP	23	96	4
TAP	23	288	4
TAP	24	96	5
TAP	24	288	5
TAP	25	96	6
TAP	25	288	6
TAP	26	96	0
TAP	26	96	7
TAP	26	288	0
TAP	26	288	7
TAP	27	96	6
TAP	27	288	6
TAP	28	96	5
TAP	28	288	5
TAP	29	96	4
TAP	29	288	4
TAP	30	96	3
TAP	30	96	4
TAP	30	288	3
TAP	30	288	4
TAP	31	96	3
TAP	31	288	3
TAP	32	96	2
TAP	32	288	2
TAP	33	96	1
TAP	33	288	1
TAP	34	0	1
TAP	35	96	0
TAP	35	288	0
TAP	36	96	1
TAP	36	192	1
TAP	36	288	1
TAP	37	96	2
TAP	37	288	2
TAP	38	96	3
TAP	38	192	4
TAP	38	288	3
TAP	39	96	4
TAP	39	288	4
TAP	40	96	5
TAP	40	288	5
TAP	41	96	6
TAP	41	288	6
TAP	42	96	7
TAP	42	192	0
TAP	42	288	7
TAP	43	96	6
TAP	43	288	6
TAP	44	96	5
TAP	44	288	5
TAP	45	96	4
TAP	45	288	4
TAP	46	96	3
TAP	46	192	4
TAP	46	288	3
TAP	47	96	2
TAP	47	288	2
TAP	48	96	1
TAP	48	288	1
TAP	49	96	0
TAP	49	288	0
STR	50	0	0
SI_	50	0	0	96	672	3
STR	54	0	7
SI_	54	0	7	96	672	4
STR	58	0	3
SI_	58	0	3	96	672	0
STR	62	0	4
SI_	62	0	4	96	672	7
BRK	66	0	0
TAP	66	96	0
TAP	66	192	0
TAP	67	0	1
TAP	67	96	1
TAP	67	192	1
TAP	68	0	2
TAP	68	96	2
TAP	68	192	2
TAP	69	0	3
TAP	69	0	4
TAP	69	96	3
TAP	69	96	4
TAP	69	192	3
TAP	69	192	4
TAP	70	0	4
TAP	70	96	4
TAP	70	192	4
TAP	71	0	5
TAP	71	96	5
TAP	71	192	5
TAP	72	0	6
TAP	72	96	6
TAP	72	192	6
TAP	73	0	0
TAP	73	0	7
TAP	73	96	0
TAP	73	96	7
TAP	73	192	0
TAP	73	192	7
TAP	74	0	0
TAP	74	0	1
TAP	74	96	0
TAP	74	96	1
TAP	75	0	6
TAP	75	0	7
TAP	75	192	6
TAP	75	192	7
TAP	76	0	6
TAP	76	0	7
TAP	76	96	6
TAP	76	96	7
TAP	77	0	0
TAP	77	0	1
TAP	77	192	0
TAP	77	192	1
TAP	78	0	7
TAP	78	96	7
TAP	78	192	7
TAP	79	0	6
TAP	79	96	6
TAP	79	192	6
TAP	80	0	5
TAP	80	96	5
TAP	80	192	5
HLD	81	0	3	384
HLD	81	0	4	384
TAP	83	0	2
TAP	83	192	2
STR	84	0	1
SI_	84	0	1	96	672	5
STR	88	0	6
SI_	88	0	6	96	672	2
STR	92	0	1
SI_	92	0	1	96	672	4
STR	96	0	6
SI_	96	0	6	96	672	3
TAP	100	0	1
TAP	100	96	1
TAP	100	192	1
TAP	101	0	2
TAP	101	96	2
TAP	101	192	2
TAP	101	192	3
TAP	102	0	3
TAP	102	96	3
TAP	102	192	3
TAP	103	0	4
TAP	103	96	4
TAP	103	192	3
TAP	103	192	4
TAP	104	0	5
TAP	104	96	5
TAP	104	192	5
TAP	105	0	6
TAP	105	96	6
TAP	105	192	6
TAP	105	192	7
TAP	106	0	7
TAP	106	96	7
TAP	106	192	7
TAP	107	0	0
TAP	107	96	0
TAP	107	192	0
TAP	107	192	7
TAP	108	0	1
TAP	108	96	1
TAP	108	192	1
TAP	109	0	2
TAP	109	96	2
TAP	109	192	2
TAP	109	192	3
HLD	110	0	3	288
HLD	110	0	4	288

T_REC_TAP	180
T_REC_BRK	1
T_REC_XTP	0
T_REC_HLD	4
T_REC_XHO	0
T_REC_STR	9
T_REC_BST	0
T_REC_XST	0
T_REC_TTP	0
T_REC_THO	0
T_REC_SLD	9
T_REC_ALL	203
T_NUM_TAP	189
T_NUM_BRK	1
T_NUM_HLD	4
T_NUM_SLD	9
T_NUM_ALL	203
T_JUDGE_TAP	190
T_JUDGE_HLD	28
T_JUDGE_SLD	9
T_JUDGE_ALL	227
TTM_EACHPAIRS	29
TTM_SCR_TAP	94500
TTM_SCR_BRK	2600
TTM_SCR_HLD	4000
TTM_SCR_SLD	13500
TTM_SCR_ALL	114600
TTM_SCR_S	111100
TTM_SCR_SS	114500
TTM_RAT_ACV	10008

