VERSION	0.00.00	1.03.00
FES_MODE	0
BPM_DEF	 98.000	 98.000	 98.000	 98.000
MET_DEF	4	4
RESOLUTION	384
CLK_DEF	384
COMPATIBLE_CODE	MA2

BPM	0	0	 98.000
MET	0	0	4	4

STR	2	0	3
SCL	2	0	3	96	192	4
HLD	2	0	4	96
HLD	2	192	3	96
HLD	3	0	3	96
STR	3	0	4
SCR	3	0	4	96	192	3
HLD	3	192	4	96
TAP	4	0	3
TAP	4	0	4
TAP	4	96	3
TAP	4	96	5
TAP	4	192	3
TAP	4	192	4
TAP	4	288	2
TAP	4	288	4
TAP	5	0	3
TAP	5	0	4
TAP	5	80	3
TAP	5	96	4
TAP	5	144	3
TAP	5	144	4
STR	5	192	3
SCL	5	192	3	96	32	0
STR	5	192	4
SCR	5	192	4	96	32	7
TAP	6	0	4
TAP	6	0	6
TAP	6	48	3
TAP	6	96	2
TAP	6	128	2
TAP	6	144	3
TAP	6	192	1
TAP	6	192	3
TAP	6	240	4
TAP	6	288	5
TAP	6	320	5
TAP	6	336	4
TAP	7	0	4
TAP	7	0	6
TAP	7	48	3
TAP	7	96	2
TAP	7	128	2
TAP	7	144	3
TAP	7	192	1
TAP	7	192	3
TAP	7	240	4
STR	7	288	5
SCR	7	288	5	96	48	0
TAP	7	320	5
TAP	7	336	4
TAP	8	0	4
TAP	8	0	5
TAP	8	48	3
STR	8	96	2
SCL	8	96	2	96	48	7
TAP	8	128	2
TAP	8	144	3
TAP	8	192	2
TAP	8	192	3
TAP	8	240	4
STR	8	288	5
SCR	8	288	5	96	48	0
TAP	8	320	5
TAP	8	336	4
TAP	9	0	4
TAP	9	0	5
TAP	9	48	3
STR	9	96	2
SCL	9	96	2	96	48	7
TAP	9	128	2
TAP	9	144	3
TAP	9	192	2
TAP	9	192	3
TAP	9	240	4
TAP	9	288	5
TAP	9	320	5
TAP	9	336	4
BRK	10	0	1
BRK	10	0	6
TAP	10	80	0
TAP	10	80	4
TAP	10	144	3
TAP	10	144	4
TAP	10	192	3
TAP	10	224	3
TAP	10	240	4
TAP	10	272	4
TAP	10	288	2
TAP	10	320	2
TAP	10	336	3
TAP	11	0	1
TAP	11	0	6
TAP	11	80	3
TAP	11	80	7
TAP	11	144	3
TAP	11	144	4
TAP	11	192	4
TAP	11	224	4
TAP	11	240	3
TAP	11	272	3
TAP	11	288	5
TAP	11	320	5
TAP	11	336	4
TAP	12	0	3
STR	12	0	4
SCR	12	0	4	96	64	7
TAP	12	48	5
STR	12	96	3
SCL	12	96	3	96	64	0
TAP	12	144	2
STR	12	192	4
SCR	12	192	4	96	64	7
TAP	12	240	5
STR	12	288	3
SCL	12	288	3	96	32	1
TAP	12	336	2
STR	13	0	4
SCR	13	0	4	96	32	6
TAP	13	48	5
STR	13	96	3
SCL	13	96	3	96	32	1
TAP	13	144	2
STR	13	192	4
SV_	13	192	4	96	48	3
TAP	13	240	5
TAP	13	288	0
TAP	14	0	4
TAP	14	0	6
TAP	14	48	3
TAP	14	48	4
TAP	14	96	1
TAP	14	96	3
TAP	14	128	4
TAP	14	144	3
TAP	14	192	4
TAP	14	192	6
TAP	14	224	3
TAP	14	240	4
TAP	14	288	2
TAP	14	288	5
TAP	14	336	3
TAP	14	336	4
TAP	15	0	1
TAP	15	0	3
TAP	15	48	3
TAP	15	48	4
TAP	15	96	4
TAP	15	96	6
TAP	15	128	3
TAP	15	144	4
TAP	15	192	1
TAP	15	192	3
TAP	15	224	4
TAP	15	240	3
TAP	15	288	2
TAP	15	288	5
TAP	15	336	3
TAP	15	336	4
STR	16	0	3
SCL	16	0	3	96	64	0
TAP	16	0	4
TAP	16	48	2
STR	16	96	4
SCR	16	96	4	96	64	7
TAP	16	144	5
STR	16	192	3
SCL	16	192	3	96	64	0
TAP	16	240	2
STR	16	288	4
SCR	16	288	4	96	32	6
TAP	16	336	5
STR	17	0	3
SCL	17	0	3	96	32	1
TAP	17	48	2
STR	17	96	4
SXR	17	96	4	96	96	7
TAP	17	144	5
TAP	17	192	3
TAP	17	288	0
STR	18	0	4
SXR	18	0	4	96	144	7
HLD	18	0	5	48
HLD	18	96	5	48
HLD	18	192	6	96
TAP	18	288	0
HLD	19	0	6	48
STR	19	0	7
SXL	19	0	7	96	144	4
HLD	19	96	6	48
HLD	19	192	5	96
TAP	19	288	3
HLD	20	0	2	48
STR	20	0	3
SXL	20	0	3	96	144	0
HLD	20	96	2	48
HLD	20	192	1	96
TAP	20	288	7
STR	21	0	0
SXR	21	0	0	96	144	3
TAP	21	0	1
TAP	21	48	1
TAP	21	96	1
TAP	21	192	1
TAP	21	240	1
TAP	21	288	0
TAP	21	288	1
STR	22	0	1
SXR	22	0	1	96	144	6
TAP	22	0	5
TAP	22	96	4
TAP	22	192	3
TAP	22	240	3
TAP	22	288	2
TAP	22	288	5
TAP	23	0	2
STR	23	0	6
SXL	23	0	6	96	144	1
TAP	23	96	3
TAP	23	192	4
TAP	23	240	4
TAP	23	288	2
TAP	23	288	5
TAP	24	0	2
TAP	24	48	1
TAP	24	48	3
TAP	24	96	5
TAP	24	144	4
TAP	24	144	6
TAP	24	192	0
TAP	24	240	1
TAP	24	240	7
TAP	24	288	2
TAP	24	288	6
STR	24	336	3
SCL	24	336	3	96	240	4
STR	24	336	5
SCR	24	336	5	96	240	4
TAP	25	0	4
TAP	25	48	3
TAP	25	48	5
TAP	26	0	3
TAP	26	32	3
TAP	26	48	4
STR	26	96	3
SCL	26	96	3	96	48	0
STR	26	96	4
SCR	26	96	4	96	48	7
STR	26	288	0
SCL	26	288	0	96	48	4
SCR	26	288	0	96	48	4
TAP	26	288	4
TAP	26	336	0
STR	26	336	4
SF_	26	336	4	96	48	0
TAP	27	0	0
TAP	27	128	5
TAP	27	144	4
TAP	27	176	3
TAP	27	176	6
TAP	27	224	0
TAP	27	240	7
TAP	27	288	3
STR	27	288	7
SCL	27	288	7	96	48	3
SCR	27	288	7	96	48	3
STR	27	336	3
SF_	27	336	3	96	48	7
TAP	27	336	7
TAP	28	0	7
TAP	28	128	2
TAP	28	144	3
TAP	28	176	1
TAP	28	176	4
TAP	28	224	7
TAP	28	240	0
STR	28	288	1
SUR	28	288	1	96	48	5
TAP	28	288	6
TAP	28	336	3
TAP	28	336	4
TAP	29	0	1
STR	29	0	6
SUL	29	0	6	96	48	2
TAP	29	48	7
STR	29	96	1
SUR	29	96	1	96	48	5
TAP	29	96	6
TAP	29	144	0
TAP	29	192	1
STR	29	192	6
SUL	29	192	6	96	48	2
TAP	29	240	7
STR	29	288	1
SCL	29	288	1	96	64	4
TAP	29	288	6
TAP	29	336	0
TAP	30	0	1
TAP	30	0	6
BRK	30	96	0
BRK	30	96	7
TAP	30	192	6
TAP	30	240	5
TAP	30	240	7
STR	30	288	0
SCL	30	288	0	96	48	4
SCR	30	288	0	96	48	4
TAP	30	288	4
TAP	30	336	0
STR	30	336	4
SF_	30	336	4	96	48	0
TAP	31	0	0
TAP	31	128	2
TAP	31	144	3
TAP	31	176	1
TAP	31	176	4
TAP	31	224	7
TAP	31	240	2
TAP	31	272	2
TAP	31	288	5
TAP	31	320	5
HLD	31	336	0	288
STR	32	48	1
SCR	32	48	1	96	48	6
TAP	32	96	6
TAP	32	144	1
TAP	32	240	7
TAP	32	288	1
TAP	32	288	6
TAP	32	336	2
TAP	32	336	5
TAP	33	0	1
TAP	33	0	3
TAP	33	48	0
TAP	33	96	4
TAP	33	96	6
TAP	33	144	7
TAP	33	192	0
TAP	33	192	7
TAP	33	240	1
TAP	33	240	6
TAP	33	288	2
TAP	33	288	5
STR	33	336	3
SXR	33	336	3	96	144	0
STR	33	336	4
SXL	33	336	4	96	144	7
TAP	34	0	3
TAP	34	0	4
BRK	34	240	2
BRK	34	240	6
BRK	34	288	3
BRK	34	288	7
BST	34	336	0
SCR	34	336	0	96	32	3
BRK	34	336	4
TAP	35	0	2
TAP	35	0	6
STR	35	48	0
SCL	35	48	0	96	32	5
TAP	35	48	4
TAP	35	96	5
STR	35	144	0
SCR	35	144	0	96	32	3
TAP	35	144	4
TAP	35	192	3
STR	35	240	0
SCL	35	240	0	96	32	5
TAP	35	240	4
TAP	35	288	5
STR	35	336	0
SCR	35	336	0	96	32	3
TAP	35	336	4
TAP	36	0	3
STR	36	48	0
SCL	36	48	0	96	32	5
TAP	36	48	4
TAP	36	96	5
TAP	36	144	0
TAP	36	144	4
TAP	36	192	3
TAP	36	240	1
TAP	36	240	5
TAP	36	288	0
TAP	36	288	4
TAP	36	336	3
STR	36	336	7
SCL	36	336	7	96	32	4
TAP	37	0	1
TAP	37	0	5
TAP	37	48	3
STR	37	48	7
SCR	37	48	7	96	32	2
TAP	37	96	2
TAP	37	144	3
STR	37	144	7
SCL	37	144	7	96	32	4
TAP	37	192	4
TAP	37	240	3
STR	37	240	7
SCR	37	240	7	96	32	2
TAP	37	288	2
TAP	37	336	3
STR	37	336	7
SCL	37	336	7	96	32	4
TAP	38	0	4
TAP	38	48	3
STR	38	48	7
SCR	38	48	7	96	32	2
TAP	38	96	2
TAP	38	144	3
TAP	38	144	7
TAP	38	192	4
TAP	38	240	2
TAP	38	240	6
TAP	38	288	3
TAP	38	288	7
STR	38	336	0
SCR	38	336	0	96	32	3
TAP	38	336	4
TAP	39	0	2
TAP	39	0	6
STR	39	48	0
SCL	39	48	0	96	32	5
TAP	39	48	4
TAP	39	96	6
STR	39	144	0
SCR	39	144	0	96	32	3
TAP	39	144	4
TAP	39	192	2
STR	39	240	0
SCL	39	240	0	96	32	5
TAP	39	240	4
TAP	39	288	6
STR	39	336	0
SCR	39	336	0	96	32	3
TAP	39	336	4
TAP	40	0	2
STR	40	48	0
SCL	40	48	0	96	32	5
TAP	40	48	4
TAP	40	96	6
TAP	40	144	0
TAP	40	144	4
TAP	40	192	2
TAP	40	240	1
TAP	40	240	5
TAP	40	288	0
TAP	40	288	4
TAP	40	336	3
STR	40	336	7
SCL	40	336	7	96	32	4
TAP	41	0	1
TAP	41	0	5
TAP	41	48	3
STR	41	48	7
SCR	41	48	7	96	32	2
TAP	41	96	1
TAP	41	144	3
STR	41	144	7
SCL	41	144	7	96	32	4
TAP	41	192	5
TAP	41	240	3
STR	41	240	7
SCR	41	240	7	96	32	2
TAP	41	288	1
TAP	41	336	3
TAP	41	336	7
TAP	42	0	5
TAP	42	48	3
TAP	42	48	4
TAP	42	80	3
TAP	42	80	4
TAP	42	128	2
TAP	42	128	5
HLD	42	176	2	160
HLD	42	176	5	160
TAP	43	0	2
TAP	43	0	4
TAP	43	32	1
TAP	43	48	3
TAP	43	96	3
TAP	43	96	5
TAP	43	128	6
TAP	43	144	4
STR	43	192	1
SCL	43	192	1	96	48	6
TAP	43	192	3
TAP	43	224	2
TAP	43	240	3
TAP	43	288	1
TAP	43	288	4
TAP	43	336	5
TAP	44	0	3
TAP	44	0	5
TAP	44	32	6
TAP	44	48	4
TAP	44	96	2
TAP	44	96	4
TAP	44	128	1
TAP	44	144	3
TAP	44	192	4
STR	44	192	6
SCR	44	192	6	96	48	1
TAP	44	224	5
TAP	44	240	4
TAP	44	288	3
TAP	44	288	6
TAP	44	336	2
TAP	45	0	2
TAP	45	0	4
TAP	45	32	1
TAP	45	48	3
TAP	45	96	3
TAP	45	96	5
TAP	45	128	6
TAP	45	144	4
STR	45	192	1
SCL	45	192	1	96	48	6
TAP	45	192	3
TAP	45	224	2
TAP	45	240	3
TAP	45	288	1
TAP	45	288	4
TAP	45	336	5
HLD	46	0	2	48
TAP	46	0	4
HLD	46	48	0	48
HLD	46	96	7	48
HLD	46	144	5	48
HLD	46	192	7	48
TAP	46	240	0
TAP	46	288	2
TAP	46	288	6
TAP	47	0	0
TAP	47	0	6
TAP	47	32	5
TAP	47	48	7
TAP	47	96	1
TAP	47	96	7
TAP	47	128	2
TAP	47	144	0
STR	47	192	5
SCR	47	192	5	96	48	0
TAP	47	192	7
TAP	47	224	6
TAP	47	240	7
TAP	47	288	1
TAP	47	288	5
TAP	47	336	3
TAP	48	0	1
TAP	48	0	7
TAP	48	32	2
TAP	48	48	0
TAP	48	96	0
TAP	48	96	6
TAP	48	128	5
TAP	48	144	7
TAP	48	192	0
STR	48	192	2
SCL	48	192	2	96	48	7
TAP	48	224	1
TAP	48	240	0
TAP	48	288	2
TAP	48	288	6
TAP	48	336	4
TAP	49	0	0
TAP	49	0	6
TAP	49	32	5
TAP	49	48	7
TAP	49	96	1
TAP	49	96	7
TAP	49	128	2
TAP	49	144	0
TAP	49	192	5
TAP	49	192	7
TAP	49	224	6
TAP	49	240	7
TAP	49	288	0
TAP	49	288	4
HLD	49	336	3	48
HLD	49	336	4	48
BRK	50	48	0
BRK	50	48	7
HLD	50	96	2	48
HLD	50	144	0	48
HLD	50	192	7	48
HLD	50	240	5	48
TAP	50	288	2
TAP	50	320	7
TAP	50	336	0
BRK	50	368	1
BRK	50	368	6

T_REC_TAP	406
T_REC_BRK	13
T_REC_XTP	0
T_REC_HLD	27
T_REC_XHO	0
T_REC_STR	71
T_REC_BST	1
T_REC_XST	0
T_REC_TTP	0
T_REC_THO	0
T_REC_SLD	75
T_REC_ALL	593
T_NUM_TAP	477
T_NUM_BRK	14
T_NUM_HLD	27
T_NUM_SLD	75
T_NUM_ALL	593
T_JUDGE_TAP	491
T_JUDGE_HLD	88
T_JUDGE_SLD	75
T_JUDGE_ALL	654
TTM_EACHPAIRS	151
TTM_SCR_TAP	238500
TTM_SCR_BRK	36400
TTM_SCR_HLD	27000
TTM_SCR_SLD	112500
TTM_SCR_ALL	414400
TTM_SCR_S	400650
TTM_SCR_SS	413000
TTM_RAT_ACV	10033

