VERSION	0.00.00	1.03.00
FES_MODE	0
BPM_DEF	 98.000	 98.000	 98.000	 98.000
MET_DEF	4	4
RESOLUTION	384
CLK_DEF	384
COMPATIBLE_CODE	MA2

BPM	0	0	 98.000
MET	0	0	4	4

TAP	2	0	3
TAP	2	96	2
TAP	2	96	3
TAP	2	192	4
TAP	2	288	4
TAP	2	288	5
TAP	3	0	2
TAP	3	96	2
TAP	3	96	3
TAP	3	192	4
TAP	3	192	5
TAP	3	288	3
TAP	3	288	6
TAP	4	0	2
TAP	4	96	1
TAP	4	96	3
TAP	4	192	5
STR	4	288	4
SCL	4	288	4	96	192	6
TAP	4	288	6
TAP	5	288	0
TAP	5	288	7
TAP	6	0	4
TAP	6	0	5
TAP	6	48	6
TAP	6	96	4
TAP	6	96	5
TAP	6	144	6
TAP	6	192	4
STR	6	192	5
SI_	6	192	5	96	48	0
TAP	7	0	2
TAP	7	0	3
TAP	7	48	1
TAP	7	96	2
TAP	7	96	3
TAP	7	144	1
STR	7	192	2
SI_	7	192	2	96	48	7
TAP	7	192	3
TAP	8	0	4
TAP	8	0	5
TAP	8	48	7
TAP	8	96	4
TAP	8	96	5
TAP	8	144	7
TAP	8	192	4
STR	8	192	5
SCR	8	192	5	96	48	0
TAP	9	0	2
TAP	9	0	3
TAP	9	48	0
TAP	9	96	2
TAP	9	96	3
TAP	9	144	0
STR	9	192	2
SCL	9	192	2	96	48	7
TAP	9	192	3
TAP	10	0	5
TAP	10	48	4
STR	10	96	2
SUL	10	96	2	96	48	5
TAP	10	96	3
TAP	10	288	0
TAP	10	288	7
TAP	11	0	1
TAP	11	48	0
STR	11	96	6
SCL	11	96	6	96	48	3
STR	11	96	7
SCR	11	96	7	96	48	2
TAP	11	288	1
TAP	11	288	4
HLD	12	0	4	192
TAP	12	96	5
HLD	12	192	3	192
TAP	12	288	2
HLD	13	0	4	96
HLD	13	96	5	96
HLD	13	192	6	96
TAP	13	288	7
TAP	14	0	2
TAP	14	48	3
TAP	14	96	4
STR	14	96	5
SUL	14	96	5	96	72	4
TAP	14	288	3
TAP	15	0	5
TAP	15	48	4
STR	15	96	2
SLL	15	96	2	96	72	3
TAP	15	96	3
TAP	15	288	4
HLD	16	0	3	192
TAP	16	96	2
HLD	16	192	4	192
TAP	16	288	5
TAP	17	0	3
STR	17	96	2
SCL	17	96	2	96	96	5
STR	17	96	3
SUL	17	96	3	96	96	4
HLD	18	0	4	96
HLD	18	0	5	96
TAP	18	192	4
TAP	18	192	5
TAP	18	288	3
TAP	18	288	6
TAP	19	0	2
TAP	19	48	3
TAP	19	96	2
TAP	19	144	3
TAP	19	192	2
TAP	19	288	1
TAP	19	288	4
STR	20	0	1
SCL	20	0	1	96	48	6
TAP	20	0	3
TAP	20	96	4
TAP	20	192	4
STR	20	192	6
SCR	20	192	6	96	48	1
TAP	20	288	3
TAP	21	0	1
HLD	21	0	3	96
TAP	21	96	4
TAP	21	192	3
HLD	21	192	4	96
TAP	21	288	6
STR	22	0	4
SI_	22	0	4	96	48	0
STR	22	0	5
SI_	22	0	5	96	48	0
TAP	22	192	1
TAP	22	240	2
TAP	22	288	3
TAP	22	288	4
STR	23	0	2
SI_	23	0	2	96	48	7
STR	23	0	3
SI_	23	0	3	96	48	7
TAP	23	192	6
TAP	23	240	5
TAP	23	288	3
TAP	23	288	4
TAP	24	0	0
STR	24	0	5
SI_	24	0	5	96	48	0
TAP	24	96	1
STR	24	192	2
SI_	24	192	2	96	48	7
TAP	24	192	7
TAP	24	288	6
STR	25	0	4
SXR	25	0	4	96	192	1
STR	25	0	5
SXL	25	0	5	96	192	0
TAP	25	48	4
TAP	25	48	5
HLD	26	0	0	192
HLD	26	0	7	192
BRK	26	288	1
BRK	26	288	6
HLD	27	0	0	32
HLD	27	0	1	32
TAP	27	48	0
TAP	27	48	1
HLD	27	80	0	64
HLD	27	80	1	64
TAP	27	192	2
TAP	27	240	3
TAP	27	240	4
TAP	27	288	5
TAP	27	336	4
TAP	27	336	6
HLD	28	0	6	32
HLD	28	0	7	32
TAP	28	48	6
TAP	28	48	7
HLD	28	80	6	64
HLD	28	80	7	64
TAP	28	192	5
TAP	28	240	3
TAP	28	240	4
TAP	28	288	2
TAP	28	336	1
TAP	28	336	4
TAP	29	0	3
HLD	29	0	6	96
TAP	29	48	4
HLD	29	96	2	96
TAP	29	144	4
HLD	29	192	7	96
TAP	29	240	4
STR	29	288	1
SCR	29	288	1	96	96	7
TAP	29	336	4
TAP	30	0	0
TAP	30	192	6
TAP	30	240	5
TAP	30	240	7
TAP	30	288	1
TAP	30	336	0
TAP	30	336	2
HLD	31	0	0	32
HLD	31	0	7	32
TAP	31	48	0
TAP	31	48	7
HLD	31	80	0	64
HLD	31	80	7	64
TAP	31	192	1
TAP	31	192	3
TAP	31	240	3
TAP	31	240	4
TAP	31	288	4
TAP	31	288	6
HLD	31	336	6	48
HLD	31	336	7	48
TAP	32	48	4
TAP	32	48	5
TAP	32	96	2
TAP	32	96	3
HLD	32	144	0	48
HLD	32	144	1	48
TAP	32	240	0
TAP	32	240	7
TAP	32	288	1
TAP	32	288	6
TAP	32	336	2
TAP	32	336	5
TAP	33	0	0
TAP	33	0	2
TAP	33	48	2
TAP	33	96	3
TAP	33	144	4
TAP	33	192	5
TAP	33	192	7
TAP	33	240	5
STR	33	288	4
SUL	33	288	4	96	120	1
TAP	33	336	3
TAP	34	0	2
HLD	34	192	0	144
BRK	34	240	7
BRK	34	288	6
BRK	34	336	5
TAP	35	0	2
HLD	35	0	3	96
TAP	35	48	1
TAP	35	96	2
TAP	35	144	3
TAP	35	144	4
HLD	35	192	4	96
TAP	35	192	5
TAP	35	240	6
TAP	35	288	5
TAP	35	336	3
TAP	35	336	4
TAP	36	0	2
TAP	36	48	1
TAP	36	48	3
TAP	36	96	4
TAP	36	144	4
TAP	36	144	6
TAP	36	192	4
TAP	36	192	5
TAP	36	240	2
TAP	36	240	3
TAP	36	288	3
TAP	36	288	4
TAP	36	336	2
TAP	36	336	5
HLD	37	0	4	96
TAP	37	0	5
TAP	37	48	6
TAP	37	96	5
TAP	37	144	3
TAP	37	144	4
TAP	37	192	2
HLD	37	192	3	96
TAP	37	240	1
TAP	37	288	2
TAP	37	336	3
TAP	37	336	4
TAP	38	0	5
TAP	38	48	4
TAP	38	48	5
TAP	38	96	3
TAP	38	144	2
TAP	38	144	3
TAP	38	192	4
TAP	38	240	4
TAP	38	240	6
TAP	38	288	3
TAP	38	336	1
TAP	38	336	3
TAP	39	0	2
HLD	39	0	3	96
TAP	39	48	0
TAP	39	96	1
TAP	39	144	2
TAP	39	144	4
HLD	39	192	4	96
TAP	39	192	5
TAP	39	240	7
TAP	39	288	6
TAP	39	336	3
TAP	39	336	5
TAP	40	0	2
TAP	40	48	1
TAP	40	48	3
TAP	40	96	4
TAP	40	144	4
TAP	40	144	6
TAP	40	192	4
TAP	40	192	5
TAP	40	240	2
TAP	40	240	3
TAP	40	288	3
TAP	40	288	4
TAP	40	336	1
TAP	40	336	6
TAP	41	0	2
HLD	41	0	3	96
TAP	41	48	0
TAP	41	96	1
TAP	41	144	3
TAP	41	144	4
HLD	41	192	4	96
TAP	41	192	5
TAP	41	240	7
TAP	41	288	6
TAP	41	336	3
TAP	41	336	4
TAP	42	0	2
TAP	42	0	5
TAP	42	48	3
TAP	42	80	4
TAP	42	128	1
TAP	42	128	6
BRK	42	176	0
BRK	42	176	7
TAP	43	0	2
TAP	43	0	3
TAP	43	48	1
TAP	43	96	2
TAP	43	96	3
TAP	43	144	0
TAP	43	192	2
TAP	43	192	3
TAP	43	240	7
TAP	43	288	4
TAP	43	288	6
TAP	44	0	4
TAP	44	0	5
TAP	44	48	6
TAP	44	96	4
TAP	44	96	5
TAP	44	144	7
TAP	44	192	4
TAP	44	192	5
TAP	44	240	0
TAP	44	288	1
TAP	44	288	3
TAP	45	0	2
TAP	45	0	3
TAP	45	48	1
TAP	45	96	2
TAP	45	96	3
TAP	45	144	0
TAP	45	192	2
TAP	45	192	3
TAP	45	240	7
STR	45	288	4
SUL	45	288	4	96	144	1
TAP	45	288	6
TAP	46	192	6
TAP	46	240	6
TAP	46	240	7
TAP	46	288	1
TAP	46	336	0
TAP	46	336	1
TAP	47	0	6
TAP	47	0	7
TAP	47	48	5
TAP	47	96	6
TAP	47	96	7
TAP	47	144	4
TAP	47	192	6
TAP	47	192	7
TAP	47	240	3
TAP	47	288	0
TAP	47	288	2
TAP	48	0	0
TAP	48	0	1
TAP	48	48	2
TAP	48	96	0
TAP	48	96	1
TAP	48	144	3
TAP	48	192	0
TAP	48	192	1
TAP	48	240	4
TAP	48	288	5
TAP	48	288	7
TAP	49	0	6
TAP	49	0	7
TAP	49	48	5
TAP	49	96	6
TAP	49	96	7
TAP	49	144	4
TAP	49	192	6
TAP	49	192	7
TAP	49	240	3
STR	49	288	0
SCR	49	288	0	96	96	7
TAP	49	288	2
TAP	50	192	4
TAP	50	192	6
TAP	50	240	1
TAP	50	240	3
TAP	50	288	0
TAP	50	288	7
TAP	50	336	1
TAP	50	336	6
TAP	50	368	1
TAP	50	368	6

T_REC_TAP	326
T_REC_BRK	7
T_REC_XTP	0
T_REC_HLD	41
T_REC_XHO	0
T_REC_STR	26
T_REC_BST	0
T_REC_XST	0
T_REC_TTP	0
T_REC_THO	0
T_REC_SLD	26
T_REC_ALL	426
T_NUM_TAP	352
T_NUM_BRK	7
T_NUM_HLD	41
T_NUM_SLD	26
T_NUM_ALL	426
T_JUDGE_TAP	359
T_JUDGE_HLD	164
T_JUDGE_SLD	26
T_JUDGE_ALL	549
TTM_EACHPAIRS	139
TTM_SCR_TAP	176000
TTM_SCR_BRK	18200
TTM_SCR_HLD	41000
TTM_SCR_SLD	39000
TTM_SCR_ALL	274200
TTM_SCR_S	265300
TTM_SCR_SS	273500
TTM_RAT_ACV	10025

