VERSION	0.00.00	1.03.00
FES_MODE	0
BPM_DEF	 98.000	 98.000	 98.000	 98.000
MET_DEF	4	4
RESOLUTION	384
CLK_DEF	384
COMPATIBLE_CODE	MA2

BPM	0	0	 98.000
MET	0	0	4	4

TAP	2	0	4
TAP	2	0	5
TAP	2	96	6
TAP	2	192	4
TAP	2	192	5
TAP	2	288	3
TAP	3	0	2
TAP	3	0	3
TAP	3	96	1
TAP	3	192	2
TAP	3	192	3
TAP	3	288	4
TAP	4	0	4
TAP	4	0	5
TAP	4	96	6
TAP	4	192	4
TAP	4	192	5
TAP	4	288	3
STR	5	0	3
SI_	5	0	3	96	144	0
STR	5	0	4
SI_	5	0	4	96	144	7
TAP	6	0	1
TAP	6	96	0
TAP	6	96	2
TAP	6	192	3
TAP	6	288	2
TAP	6	288	4
TAP	7	0	6
TAP	7	96	5
TAP	7	96	7
TAP	7	192	4
TAP	7	288	3
TAP	7	288	5
TAP	8	0	1
TAP	8	96	0
TAP	8	96	2
TAP	8	192	3
TAP	8	288	2
TAP	8	288	4
TAP	9	0	6
TAP	9	96	5
TAP	9	96	7
BRK	9	192	0
BRK	9	192	7
HLD	10	0	2	96
TAP	10	0	3
TAP	10	96	3
TAP	10	192	3
TAP	10	240	3
TAP	10	288	2
TAP	11	0	4
HLD	11	0	5	96
TAP	11	96	4
TAP	11	192	4
TAP	11	240	4
TAP	11	288	5
HLD	12	0	2	96
TAP	12	96	3
HLD	12	192	5	96
TAP	12	288	4
HLD	13	0	1	96
TAP	13	96	0
HLD	13	192	6	96
TAP	13	288	7
TAP	14	0	2
TAP	14	48	2
TAP	14	96	1
TAP	14	96	3
TAP	14	192	5
TAP	14	240	5
TAP	14	288	4
TAP	14	288	6
TAP	15	0	2
TAP	15	48	2
TAP	15	96	1
TAP	15	96	3
TAP	15	192	5
TAP	15	240	5
TAP	15	288	4
TAP	15	288	6
HLD	16	0	1	96
TAP	16	96	0
HLD	16	192	6	96
TAP	16	288	7
HLD	17	0	2	96
TAP	17	96	3
HLD	17	192	5	96
TAP	17	288	4
HLD	18	0	2	96
TAP	18	96	3
TAP	18	192	2
TAP	18	192	3
TAP	18	240	2
TAP	18	240	3
HLD	19	0	5	96
TAP	19	96	4
TAP	19	192	4
TAP	19	192	5
TAP	19	240	4
TAP	19	240	5
HLD	20	0	3	96
TAP	20	96	2
HLD	20	192	4	96
TAP	20	288	5
HLD	21	0	0	96
TAP	21	96	1
HLD	21	192	7	96
TAP	21	288	6
HLD	22	0	1	96
TAP	22	96	0
TAP	22	192	0
TAP	22	192	1
TAP	22	240	0
TAP	22	240	1
HLD	23	0	6	96
TAP	23	96	7
TAP	23	192	6
TAP	23	192	7
TAP	23	240	6
TAP	23	240	7
HLD	24	0	5	96
HLD	24	96	4	96
HLD	24	192	3	96
TAP	24	288	2
STR	25	0	3
SXR	25	0	3	96	288	0
STR	25	0	4
SXL	25	0	4	96	288	7
BRK	26	288	1
BRK	26	288	6
TAP	27	0	2
TAP	27	48	2
TAP	27	96	1
TAP	27	96	3
TAP	27	192	0
TAP	27	192	1
TAP	27	288	6
TAP	27	288	7
TAP	28	0	5
TAP	28	48	5
TAP	28	96	4
TAP	28	96	6
TAP	28	192	6
TAP	28	192	7
TAP	28	288	0
TAP	28	288	1
HLD	29	0	2	96
HLD	29	96	3	96
HLD	29	192	4	96
HLD	29	288	5	96
STR	30	0	6
SUR	30	0	6	96	192	1
TAP	31	0	6
TAP	31	48	6
TAP	31	96	5
TAP	31	96	7
TAP	31	192	4
TAP	31	192	5
TAP	31	288	2
TAP	31	288	3
TAP	32	0	1
TAP	32	48	1
TAP	32	96	0
TAP	32	96	2
TAP	32	192	2
TAP	32	192	3
TAP	32	288	4
TAP	32	288	5
TAP	33	0	6
TAP	33	0	7
TAP	33	48	7
TAP	33	96	7
TAP	33	192	0
TAP	33	192	1
TAP	33	240	0
TAP	33	288	0
STR	34	0	0
SI_	34	0	0	96	72	2
STR	34	0	7
SI_	34	0	7	96	72	5
TAP	34	240	3
TAP	34	288	3
TAP	34	336	3
HLD	35	0	4	96
HLD	35	96	5	96
HLD	35	192	6	96
HLD	35	288	7	96
HLD	36	0	0	96
HLD	36	96	1	96
HLD	36	192	2	96
TAP	36	288	3
HLD	37	0	3	96
HLD	37	96	2	96
HLD	37	192	1	96
HLD	37	288	0	96
HLD	38	0	7	96
HLD	38	96	6	96
HLD	38	192	5	96
TAP	38	288	4
STR	39	0	3
SI_	39	0	3	96	72	1
STR	39	192	4
SI_	39	192	4	96	96	0
STR	40	0	3
SI_	40	0	3	96	96	7
STR	40	192	4
SI_	40	192	4	96	72	6
STR	41	0	3
SCL	41	0	3	96	96	0
STR	41	192	4
SCR	41	192	4	96	96	7
HLD	42	0	0	192
TAP	42	192	7
BRK	42	288	1
BRK	42	288	6
TAP	43	0	2
TAP	43	96	1
TAP	43	96	3
TAP	43	192	0
TAP	43	240	0
TAP	43	288	1
TAP	43	288	7
TAP	44	0	5
TAP	44	96	4
TAP	44	96	6
TAP	44	192	7
TAP	44	240	7
TAP	44	288	0
TAP	44	288	6
TAP	45	0	2
TAP	45	96	1
TAP	45	96	3
TAP	45	192	0
TAP	45	240	0
TAP	45	288	1
TAP	45	288	7
STR	46	0	0
SI_	46	0	0	96	96	3
STR	46	0	7
SI_	46	0	7	96	96	4
TAP	46	288	2
TAP	46	288	5
TAP	47	0	5
TAP	47	96	4
TAP	47	96	6
TAP	47	192	7
TAP	47	240	7
TAP	47	288	0
TAP	47	288	6
TAP	48	0	2
TAP	48	96	1
TAP	48	96	3
TAP	48	192	0
TAP	48	240	0
TAP	48	288	1
TAP	48	288	7
TAP	49	0	5
TAP	49	96	4
TAP	49	96	6
TAP	49	192	7
TAP	49	240	7
TAP	49	288	0
TAP	49	288	6
TAP	50	0	0
TAP	50	0	7
STR	50	48	0
SCR	50	48	0	96	240	7
TAP	50	48	7

T_REC_TAP	191
T_REC_BRK	6
T_REC_XTP	0
T_REC_HLD	40
T_REC_XHO	0
T_REC_STR	16
T_REC_BST	0
T_REC_XST	0
T_REC_TTP	0
T_REC_THO	0
T_REC_SLD	16
T_REC_ALL	269
T_NUM_TAP	207
T_NUM_BRK	6
T_NUM_HLD	40
T_NUM_SLD	16
T_NUM_ALL	269
T_JUDGE_TAP	213
T_JUDGE_HLD	164
T_JUDGE_SLD	16
T_JUDGE_ALL	393
TTM_EACHPAIRS	63
TTM_SCR_TAP	103500
TTM_SCR_BRK	15600
TTM_SCR_HLD	40000
TTM_SCR_SLD	24000
TTM_SCR_ALL	183100
TTM_SCR_S	177050
TTM_SCR_SS	182500
TTM_RAT_ACV	10032

