VERSION	0.00.00	1.03.00
FES_MODE	0
BPM_DEF	 98.000	 98.000	 98.000	 98.000
MET_DEF	4	4
RESOLUTION	384
CLK_DEF	384
COMPATIBLE_CODE	MA2

BPM	0	0	 98.000
MET	0	0	4	4

TAP	2	0	0
TAP	2	192	0
TAP	3	0	1
TAP	3	192	1
TAP	4	0	2
TAP	4	192	2
TAP	5	0	3
TAP	5	192	3
TAP	5	192	4
TAP	6	0	4
TAP	6	96	4
TAP	6	192	4
TAP	7	0	5
TAP	7	96	5
TAP	7	192	5
TAP	8	0	6
TAP	8	96	6
TAP	8	192	6
TAP	9	0	7
TAP	9	96	7
TAP	9	192	0
TAP	9	192	7
HLD	10	0	1	192
HLD	11	0	0	192
HLD	12	0	7	192
HLD	13	0	6	192
TAP	14	0	5
TAP	14	96	5
TAP	14	192	5
TAP	15	0	4
TAP	15	96	4
TAP	15	192	4
TAP	16	0	3
TAP	16	96	3
TAP	16	192	3
TAP	17	0	4
TAP	17	96	3
TAP	17	192	3
TAP	17	192	4
STR	18	0	3
SI_	18	0	3	96	288	0
STR	20	0	4
SI_	20	0	4	96	288	7
TAP	22	0	0
TAP	22	96	0
TAP	22	192	0
TAP	23	0	0
TAP	23	0	1
TAP	23	96	0
TAP	23	96	1
TAP	23	192	0
TAP	23	192	1
TAP	24	0	7
TAP	24	96	7
TAP	24	192	7
TAP	25	0	6
TAP	25	0	7
TAP	25	96	6
TAP	25	96	7
TAP	25	192	6
TAP	25	192	7
BRK	26	0	0
BRK	26	0	7
TAP	27	0	0
TAP	27	96	0
TAP	27	192	1
TAP	27	288	1
TAP	28	0	2
TAP	28	96	2
TAP	28	192	2
TAP	28	192	3
TAP	29	0	2
TAP	29	96	2
TAP	29	192	3
TAP	29	288	3
TAP	30	0	4
TAP	30	96	4
TAP	30	192	4
TAP	30	192	5
TAP	31	0	7
TAP	31	96	7
TAP	31	192	6
TAP	31	288	6
TAP	32	0	5
TAP	32	96	5
TAP	32	192	4
TAP	32	192	5
TAP	33	0	5
TAP	33	96	5
TAP	33	192	4
TAP	33	288	4
TAP	34	0	3
TAP	34	96	3
TAP	34	192	2
TAP	34	192	3
TAP	35	0	0
TAP	35	96	0
TAP	35	192	0
TAP	36	0	0
TAP	36	0	1
TAP	36	96	0
TAP	36	96	1
TAP	36	192	0
TAP	36	192	1
TAP	37	0	2
TAP	37	96	2
TAP	37	192	2
TAP	38	0	3
TAP	38	0	4
TAP	38	96	3
TAP	38	96	4
TAP	38	192	3
TAP	38	192	4
TAP	39	0	5
TAP	39	96	5
TAP	39	192	5
TAP	40	0	6
TAP	40	0	7
TAP	40	96	6
TAP	40	96	7
TAP	40	192	6
TAP	40	192	7
TAP	41	0	0
TAP	41	96	0
TAP	41	192	0
TAP	42	0	0
TAP	42	0	7
TAP	42	96	0
TAP	42	96	7
TAP	42	192	0
TAP	42	192	7
TAP	43	0	1
TAP	43	96	1
TAP	43	192	1
TAP	44	0	0
TAP	44	96	0
TAP	44	192	0
TAP	45	0	7
TAP	45	96	7
TAP	45	192	7
TAP	46	0	6
TAP	46	0	7
TAP	46	96	6
TAP	46	96	7
TAP	46	192	6
TAP	46	192	7
TAP	47	0	5
TAP	47	96	5
TAP	47	192	5
TAP	48	0	4
TAP	48	96	4
TAP	48	192	4
TAP	49	0	3
TAP	49	96	3
TAP	49	192	3
STR	50	0	3
SI_	50	0	3	96	288	0
STR	50	0	4
SI_	50	0	4	96	288	7

T_REC_TAP	145
T_REC_BRK	2
T_REC_XTP	0
T_REC_HLD	4
T_REC_XHO	0
T_REC_STR	4
T_REC_BST	0
T_REC_XST	0
T_REC_TTP	0
T_REC_THO	0
T_REC_SLD	4
T_REC_ALL	159
T_NUM_TAP	149
T_NUM_BRK	2
T_NUM_HLD	4
T_NUM_SLD	4
T_NUM_ALL	159
T_JUDGE_TAP	151
T_JUDGE_HLD	32
T_JUDGE_SLD	4
T_JUDGE_ALL	187
TTM_EACHPAIRS	30
TTM_SCR_TAP	74500
TTM_SCR_BRK	5200
TTM_SCR_HLD	4000
TTM_SCR_SLD	6000
TTM_SCR_ALL	89700
TTM_SCR_S	86850
TTM_SCR_SS	89500
TTM_RAT_ACV	10022

