VERSION	0.00.00	1.03.00
FES_MODE	0
BPM_DEF	170.000	210.000	210.000	 92.620
MET_DEF	4	4
RESOLUTION	384
CLK_DEF	384
COMPATIBLE_CODE	MA2

BPM	0	0	170.000
BPM	15	0	158.850
BPM	15	96	136.700
BPM	15	192	114.660
BPM	15	288	 92.620
BPM	16	0	210.000
MET	0	0	4	4
MET	92	0	4	2
MET	92	192	4	4

TAP	2	0	2
STR	2	0	5
SCR	2	0	5	96	192	2
TAP	2	288	3
STR	2	336	3
SXL	2	336	3	96	240	7
STR	4	0	2
SCL	4	0	2	96	192	5
TAP	4	0	5
TAP	4	288	4
STR	4	336	4
SXR	4	336	4	96	240	0
TAP	6	0	1
STR	6	0	6
SCL	6	0	6	96	192	1
HLD	6	288	0	96
HLD	7	0	7	96
HLD	7	96	6	96
HLD	7	192	5	96
HLD	7	288	4	96
STR	8	0	3
SCL	8	0	3	96	288	4
SUR	8	0	3	96	288	4
TAP	9	192	5
TAP	9	192	7
TAP	9	288	0
TAP	9	288	6
HLD	10	0	1	288
STR	10	0	7
SI_	10	0	7	96	192	3
STR	11	0	0
SI_	11	0	0	96	192	4
HLD	11	0	6	288
TAP	12	0	2
TAP	12	0	5
TAP	12	192	1
TAP	12	192	6
STR	12	288	0
SUL	12	288	0	96	192	7
TAP	12	288	7
TAP	13	0	0
TAP	13	0	7
TAP	13	288	4
TAP	13	336	3
TAP	14	0	2
STR	14	0	5
SCR	14	0	5	96	192	2
HLD	14	288	3	96
HLD	15	0	4	96
HLD	15	96	5	96
HLD	15	192	6	96
HLD	15	288	7	96
BRK	16	0	0
TAP	16	96	0
TAP	16	96	7
TAP	16	192	1
TAP	16	192	3
TAP	16	288	1
TAP	16	288	3
TAP	17	0	2
TAP	17	0	5
TAP	17	96	2
TAP	17	96	5
TAP	17	192	4
TAP	17	192	6
TAP	17	288	4
TAP	17	288	6
TAP	18	0	0
TAP	18	0	7
TAP	18	24	1
TAP	18	48	2
TAP	18	72	3
TAP	18	96	4
TAP	18	120	5
TAP	18	144	6
TAP	18	168	7
TAP	18	192	0
TAP	18	216	1
TAP	18	240	2
TAP	18	264	3
TAP	18	288	4
TAP	18	312	5
TAP	18	336	6
TAP	18	360	7
BRK	19	0	0
BRK	19	0	4
TAP	19	192	1
TAP	19	192	3
TAP	19	288	4
TAP	19	288	6
STR	20	0	0
SI_	20	0	0	96	48	4
TAP	20	0	7
TAP	20	96	0
TAP	20	96	1
TAP	20	192	2
TAP	20	224	3
TAP	20	256	2
TAP	20	288	3
TAP	20	336	1
TAP	21	0	0
TAP	21	0	4
TAP	21	48	1
TAP	21	96	2
TAP	21	96	6
TAP	21	144	5
STR	21	192	0
SI_	21	192	0	96	48	4
TAP	21	192	4
TAP	22	0	0
STR	22	0	7
SI_	22	0	7	96	48	3
TAP	22	96	6
TAP	22	96	7
TAP	22	192	5
TAP	22	224	4
TAP	22	256	5
TAP	22	288	4
TAP	22	336	6
TAP	23	0	3
TAP	23	0	7
TAP	23	48	6
TAP	23	96	1
TAP	23	96	5
TAP	23	144	2
TAP	23	192	3
STR	23	192	7
SI_	23	192	7	96	48	3
STR	24	0	0
SI_	24	0	0	96	48	4
TAP	24	0	7
TAP	24	96	0
TAP	24	96	1
TAP	24	192	2
TAP	24	224	3
TAP	24	256	2
TAP	24	288	3
TAP	24	336	1
TAP	25	0	0
TAP	25	0	4
TAP	25	48	1
TAP	25	96	2
TAP	25	96	6
TAP	25	144	5
STR	25	192	0
SI_	25	192	0	96	48	4
TAP	25	192	4
TAP	26	0	3
TAP	26	0	5
TAP	26	48	3
TAP	26	48	5
TAP	26	96	2
TAP	26	96	4
TAP	26	144	2
TAP	26	144	4
TAP	26	192	3
TAP	26	192	5
TAP	26	240	3
TAP	26	240	5
TAP	26	288	2
TAP	26	288	4
TAP	26	336	2
TAP	26	336	4
TAP	27	0	3
TAP	27	0	5
STR	27	96	1
SCR	27	96	1	96	72	4
STR	27	96	5
SCR	27	96	5	96	72	0
BRK	27	192	1
BRK	27	192	5
TAP	28	0	6
STR	28	0	7
SI_	28	0	7	96	48	2
TAP	28	144	3
STR	28	192	3
SI_	28	192	3	96	48	6
TAP	28	336	0
STR	29	0	0
SCR	29	0	0	96	48	3
STR	29	96	6
SCL	29	96	6	96	48	3
STR	29	192	7
SI_	29	192	7	96	48	3
TAP	29	288	0
TAP	30	0	0
STR	30	0	1
SI_	30	0	1	96	48	4
TAP	30	144	5
STR	30	192	5
SI_	30	192	5	96	48	0
TAP	30	336	1
HLD	31	0	1	96
HLD	31	96	3	96
HLD	31	192	4	96
TAP	31	288	6
TAP	32	0	2
STR	32	0	3
SI_	32	0	3	96	48	6
TAP	32	144	7
STR	32	192	7
SI_	32	192	7	96	48	2
TAP	32	336	4
STR	33	0	4
SCR	33	0	4	96	48	7
STR	33	96	2
SCL	33	96	2	96	48	7
STR	33	192	3
SI_	33	192	3	96	48	7
TAP	33	288	4
HLD	34	0	1	192
TAP	34	96	0
TAP	34	144	7
HLD	34	192	6	192
TAP	34	288	7
TAP	34	336	0
TAP	35	0	1
STR	35	96	2
SCR	35	96	2	96	72	5
STR	35	96	6
SUL	35	96	6	96	72	1
TAP	35	192	2
TAP	35	192	6
STR	36	0	3
SI_	36	0	3	96	48	0
STR	36	0	7
SI_	36	0	7	96	48	4
STR	36	192	2
SI_	36	192	2	96	48	5
STR	36	192	6
SI_	36	192	6	96	48	1
TAP	37	0	4
TAP	37	48	4
TAP	37	96	0
TAP	37	144	0
STR	37	192	2
SCL	37	192	2	96	48	7
STR	37	192	6
SCL	37	192	6	96	48	3
STR	38	0	0
SI_	38	0	0	96	48	3
STR	38	0	4
SI_	38	0	4	96	48	7
STR	38	192	1
SI_	38	192	1	96	48	6
STR	38	192	5
SI_	38	192	5	96	48	2
HLD	39	0	7	96
HLD	39	96	5	96
HLD	39	192	2	96
TAP	39	288	0
STR	40	0	3
SI_	40	0	3	96	48	0
STR	40	0	7
SI_	40	0	7	96	48	4
STR	40	192	2
SI_	40	192	2	96	48	5
STR	40	192	6
SI_	40	192	6	96	48	1
TAP	41	0	4
TAP	41	48	4
TAP	41	96	0
TAP	41	144	0
TAP	41	192	2
TAP	41	192	6
HLD	41	288	2	96
HLD	42	0	0	96
HLD	42	96	7	96
HLD	42	192	5	96
STR	42	288	4
SCR	42	288	4	96	240	3
SUL	42	288	4	96	240	3
BRK	43	0	4
TAP	44	0	0
STR	44	0	1
SI_	44	0	1	96	48	3
TAP	44	96	0
TAP	44	96	1
STR	44	192	4
SI_	44	192	4	96	48	0
TAP	44	192	5
TAP	44	288	4
TAP	44	288	5
STR	45	0	1
SI_	45	0	1	96	48	3
TAP	45	0	7
TAP	45	96	1
TAP	45	96	7
STR	45	192	4
SI_	45	192	4	96	48	0
TAP	45	192	5
TAP	45	288	4
TAP	45	288	5
STR	46	0	1
SCR	46	0	1	96	96	4
STR	46	96	4
SCR	46	96	4	96	96	7
STR	46	192	7
SCR	46	192	7	96	96	2
STR	46	288	2
SCR	46	288	2	96	96	5
STR	47	0	5
SCR	47	0	5	96	120	2
SUR	47	0	5	96	120	2
TAP	47	288	5
TAP	47	336	4
HLD	48	0	5	288
TAP	48	96	7
TAP	48	192	7
TAP	48	288	2
TAP	48	336	3
HLD	49	0	2	96
HLD	49	96	0	96
HLD	49	192	7	96
HLD	49	288	5	96
STR	50	0	3
SXR	50	0	3	96	240	0
TAP	50	96	7
TAP	50	192	6
TAP	50	288	5
BST	51	0	4
SI_	51	0	4	96	48	0
TAP	51	192	2
TAP	51	192	6
TAP	51	288	0
TAP	51	288	4
STR	52	0	6
SI_	52	0	6	96	48	4
TAP	52	0	7
TAP	52	96	6
TAP	52	96	7
TAP	52	192	2
STR	52	192	3
SI_	52	192	3	96	48	7
TAP	52	288	2
TAP	52	288	3
TAP	53	0	0
STR	53	0	6
SI_	53	0	6	96	48	4
TAP	53	96	0
TAP	53	96	6
TAP	53	192	2
STR	53	192	3
SI_	53	192	3	96	48	7
TAP	53	288	2
TAP	53	288	3
STR	54	0	6
SCL	54	0	6	96	96	3
STR	54	96	3
SCL	54	96	3	96	96	0
STR	54	192	0
SCL	54	192	0	96	96	5
STR	54	288	5
SCL	54	288	5	96	96	2
STR	55	0	2
SCL	55	0	2	96	120	5
SUL	55	0	2	96	120	5
TAP	55	288	2
TAP	55	336	3
STR	56	0	2
SI_	56	0	2	96	48	0
TAP	56	96	6
STR	56	144	6
SI_	56	144	6	96	48	4
TAP	56	240	3
STR	56	288	3
SI_	56	288	3	96	48	7
STR	57	0	6
SI_	57	0	6	96	48	0
TAP	57	96	2
STR	57	144	2
SI_	57	144	2	96	48	4
TAP	57	240	5
STR	57	288	5
SI_	57	288	5	96	48	1
TAP	58	0	0
TAP	58	96	2
TAP	58	120	3
TAP	58	144	2
TAP	58	192	5
TAP	58	216	4
TAP	58	240	5
STR	58	288	3
SCL	58	288	3	96	192	4
STR	58	288	4
SCR	58	288	4	96	192	3
BRK	59	0	3
BRK	59	0	4
STR	60	0	2
SI_	60	0	2	96	48	7
TAP	60	0	4
STR	60	96	5
SI_	60	96	5	96	48	0
STR	60	192	3
SI_	60	192	3	96	48	7
STR	60	288	4
SXL	60	288	4	96	120	5
SXR	60	288	4	96	120	3
TAP	60	336	4
TAP	61	192	1
TAP	61	192	7
TAP	61	288	2
TAP	61	288	6
TAP	62	0	3
STR	62	0	5
SI_	62	0	5	96	48	0
STR	62	96	2
SI_	62	96	2	96	48	7
STR	62	192	4
SI_	62	192	4	96	48	0
STR	62	288	3
SXL	62	288	3	96	120	4
SXR	62	288	3	96	120	2
TAP	62	336	3
TAP	63	192	6
TAP	63	192	7
TAP	63	288	0
TAP	63	288	5
STR	64	0	1
SXL	64	0	1	96	192	4
TAP	64	0	4
TAP	64	96	5
TAP	64	192	6
STR	64	288	7
SUR	64	288	7	96	96	3
STR	65	0	3
SUR	65	0	3	96	96	7
STR	65	96	7
SCR	65	96	7	96	96	3
STR	65	192	3
SCR	65	192	3	96	96	7
STR	65	288	7
SUR	65	288	7	96	144	0
BRK	66	0	0
TAP	66	192	2
TAP	66	240	3
TAP	66	288	4
TAP	66	336	5
TAP	67	0	6
TAP	67	0	7
TAP	67	48	6
TAP	67	48	7
TAP	67	96	0
TAP	67	96	1
TAP	67	144	0
TAP	67	144	1
TAP	67	192	3
TAP	67	216	4
TAP	67	240	3
TAP	67	264	4
TAP	67	288	3
STR	68	0	0
SI_	68	0	0	96	48	4
TAP	68	0	7
TAP	68	96	6
TAP	68	192	3
STR	68	192	5
SI_	68	192	5	96	48	1
TAP	68	288	2
TAP	69	0	0
STR	69	0	3
SI_	69	0	3	96	48	0
TAP	69	96	5
STR	69	192	6
SI_	69	192	6	96	48	2
TAP	69	192	7
STR	69	288	0
SCR	69	288	0	96	60	3
STR	70	0	0
SCL	70	0	0	96	60	5
STR	70	96	0
SUR	70	96	0	96	60	4
STR	70	192	0
SUL	70	192	0	96	60	4
STR	70	288	0
SXL	70	288	0	96	192	4
SXR	70	288	0	96	192	4
BRK	71	0	0
TAP	71	288	1
TAP	71	336	0
STR	72	0	2
SI_	72	0	2	96	48	5
TAP	72	0	7
TAP	72	96	2
TAP	72	96	7
TAP	72	192	3
STR	72	192	6
SI_	72	192	6	96	48	1
TAP	72	288	3
TAP	72	288	6
STR	73	0	0
SI_	73	0	0	96	48	3
TAP	73	0	5
TAP	73	96	0
TAP	73	96	5
TAP	73	192	1
STR	73	192	4
SI_	73	192	4	96	48	7
TAP	73	288	1
TAP	73	288	4
TAP	74	0	0
TAP	74	0	2
TAP	74	48	1
TAP	74	96	1
TAP	74	144	5
TAP	74	144	7
TAP	74	192	6
TAP	74	240	6
STR	74	288	0
SXR	74	288	0	96	240	5
STR	74	288	1
SXL	74	288	1	96	240	4
BRK	75	0	0
BRK	75	0	1
STR	76	0	0
SI_	76	0	0	96	48	4
TAP	76	0	7
TAP	76	96	0
TAP	76	96	2
TAP	76	192	1
TAP	76	224	2
TAP	76	256	3
TAP	76	288	0
TAP	76	336	0
TAP	77	0	2
TAP	77	0	7
TAP	77	48	1
TAP	77	96	0
TAP	77	96	5
TAP	77	144	6
STR	77	192	0
SI_	77	192	0	96	48	4
TAP	77	192	7
TAP	78	0	0
STR	78	0	7
SI_	78	0	7	96	48	3
TAP	78	96	5
TAP	78	96	7
TAP	78	192	6
TAP	78	224	5
TAP	78	256	4
TAP	78	288	7
TAP	78	336	7
TAP	79	0	0
TAP	79	0	5
TAP	79	48	6
TAP	79	96	2
TAP	79	96	7
TAP	79	144	1
TAP	79	192	0
STR	79	192	7
SI_	79	192	7	96	48	3
STR	80	0	0
SI_	80	0	0	96	48	4
TAP	80	0	7
TAP	80	96	0
TAP	80	96	2
TAP	80	192	1
TAP	80	224	2
TAP	80	256	3
TAP	80	288	0
TAP	80	336	0
TAP	81	0	2
TAP	81	0	7
TAP	81	48	1
TAP	81	96	0
TAP	81	96	5
TAP	81	144	6
STR	81	192	0
SI_	81	192	0	96	48	4
TAP	81	192	7
TAP	82	0	0
STR	82	0	7
SI_	82	0	7	96	48	3
TAP	82	96	5
TAP	82	96	7
TAP	82	192	6
TAP	82	224	5
TAP	82	256	4
TAP	82	288	7
TAP	82	336	7
BST	83	0	0
SI_	83	0	0	96	48	4
TAP	83	48	0
BST	83	96	7
SI_	83	96	7	96	48	3
TAP	83	144	7
BST	83	192	1
SI_	83	192	1	96	48	5
TAP	83	240	1
BRK	83	288	6
STR	84	0	2
SCL	84	0	2	96	48	7
TAP	84	0	3
TAP	84	96	3
TAP	84	192	4
STR	84	192	5
SCR	84	192	5	96	48	0
TAP	84	288	4
STR	85	0	2
SCL	85	0	2	96	48	7
TAP	85	0	3
TAP	85	96	3
TAP	85	192	4
STR	85	192	5
SCR	85	192	5	96	48	0
TAP	85	288	4
TAP	86	0	1
TAP	86	32	2
TAP	86	64	3
TAP	86	96	6
TAP	86	128	5
TAP	86	160	4
TAP	86	192	0
TAP	86	240	0
TAP	86	288	7
TAP	86	336	7
STR	87	0	1
SI_	87	0	1	96	48	5
TAP	87	48	1
STR	87	96	7
SI_	87	96	7	96	48	3
TAP	87	144	7
STR	87	192	0
SI_	87	192	0	96	48	4
TAP	87	240	0
STR	87	288	6
SI_	87	288	6	96	48	2
TAP	87	336	6
TAP	88	0	1
TAP	88	96	3
TAP	88	144	2
TAP	88	192	1
TAP	88	192	4
TAP	88	240	5
TAP	88	288	6
TAP	88	336	4
TAP	88	336	7
TAP	89	0	3
TAP	89	48	2
TAP	89	96	1
HLD	89	144	0	240
TAP	89	144	4
TAP	89	288	6
TAP	89	320	5
TAP	89	352	4
TAP	90	0	3
TAP	90	96	2
TAP	90	96	4
TAP	90	144	2
TAP	90	144	4
TAP	90	192	3
TAP	90	192	5
TAP	90	240	3
TAP	90	240	5
TAP	90	288	2
TAP	90	288	4
TAP	90	336	2
TAP	90	336	4
TAP	91	0	3
TAP	91	0	5
STR	91	96	0
SSL	91	96	0	96	48	4
STR	91	96	7
SSR	91	96	7	96	48	3
BRK	91	192	0
BRK	91	192	7
TAP	92	0	4
STR	92	96	4
SF_	92	96	4	96	48	0
BRK	92	192	4
TAP	93	96	3
HLD	93	144	3	144
HLD	93	288	4	96
HLD	94	0	5	96
HLD	94	96	6	96
STR	94	192	7
SI_	94	192	7	96	192	3
HLD	95	192	0	96
HLD	95	288	1	96
HLD	96	0	2	96
HLD	96	96	3	96
STR	96	192	4
SI_	96	192	4	96	192	0
HLD	97	192	5	96
HLD	97	192	7	96
HLD	98	0	0	96
HLD	98	0	2	96
TAP	98	192	6
TAP	98	216	7
TAP	98	240	5
TAP	98	288	1
TAP	98	312	0
TAP	98	336	2
TAP	99	0	5
TAP	99	24	4
TAP	99	48	6
STR	99	96	2
SSL	99	96	2	96	96	6
TAP	99	120	3
TAP	99	144	1
BRK	99	192	2
TAP	100	0	1
TAP	100	0	6
TAP	100	48	7
TAP	100	72	0
TAP	100	96	7
TAP	100	120	0
TAP	100	144	7
TAP	100	168	0
STR	100	192	7
SI_	100	192	7	96	48	3
TAP	100	288	1
STR	101	0	2
SI_	101	0	2	96	48	6
TAP	101	0	4
TAP	101	96	5
STR	101	192	4
SI_	101	192	4	96	48	7
TAP	101	192	7
TAP	101	288	2
TAP	102	0	0
STR	102	0	1
SI_	102	0	1	96	48	5
STR	102	96	7
SCL	102	96	7	96	60	4
STR	102	192	7
SCR	102	192	7	96	60	2
STR	102	288	7
SUL	102	288	7	96	60	3
STR	103	0	7
SUR	103	0	7	96	60	3
STR	103	96	7
SXL	103	96	7	96	192	3
SXR	103	96	7	96	192	3
BRK	103	192	7
TAP	104	96	6
TAP	104	144	7
TAP	104	192	0
STR	104	192	5
SI_	104	192	5	96	48	2
TAP	104	288	0
TAP	104	288	5
STR	105	0	1
SI_	105	0	1	96	48	6
TAP	105	0	4
TAP	105	96	1
TAP	105	96	4
TAP	105	192	2
STR	105	192	7
SI_	105	192	7	96	48	4
TAP	105	288	2
TAP	105	288	7
STR	106	0	3
SI_	106	0	3	96	48	0
TAP	106	0	6
TAP	106	96	3
TAP	106	96	6
TAP	106	192	5
TAP	106	192	7
TAP	106	240	6
TAP	106	288	5
TAP	106	288	7
TAP	106	336	6
STR	107	0	5
SI_	107	0	5	96	48	3
STR	107	0	7
SI_	107	0	7	96	48	3
BRK	107	96	5
BRK	107	96	7
TAP	107	192	0
TAP	107	192	2
TAP	107	240	1
TAP	107	288	0
TAP	107	288	2
TAP	107	336	1
STR	108	0	0
SI_	108	0	0	96	48	4
STR	108	0	2
SI_	108	0	2	96	48	4
BRK	108	96	0
BRK	108	96	2
TAP	108	192	0
TAP	108	192	6
TAP	108	240	7
TAP	108	288	7
TAP	108	336	0
TAP	108	336	2
TAP	109	0	1
TAP	109	48	1
TAP	109	96	2
TAP	109	96	4
TAP	109	144	3
TAP	109	192	3
TAP	109	240	4
TAP	109	240	6
TAP	109	288	5
TAP	109	336	5
TAP	110	0	1
TAP	110	0	6
BST	110	96	2
SXR	110	96	2	96	1632	4
BST	110	96	5
SXL	110	96	5	96	1632	3

T_REC_TAP	438
T_REC_BRK	22
T_REC_XTP	0
T_REC_HLD	42
T_REC_XHO	0
T_REC_STR	141
T_REC_BST	6
T_REC_XST	0
T_REC_TTP	0
T_REC_THO	0
T_REC_SLD	155
T_REC_ALL	804
T_NUM_TAP	579
T_NUM_BRK	28
T_NUM_HLD	42
T_NUM_SLD	155
T_NUM_ALL	804
T_JUDGE_TAP	607
T_JUDGE_HLD	108
T_JUDGE_SLD	155
T_JUDGE_ALL	870
TTM_EACHPAIRS	170
TTM_SCR_TAP	289500
TTM_SCR_BRK	72800
TTM_SCR_HLD	42000
TTM_SCR_SLD	232500
TTM_SCR_ALL	636800
TTM_SCR_S	615000
TTM_SCR_SS	634000
TTM_RAT_ACV	10044

