VERSION	0.00.00	1.03.00
FES_MODE	0
BPM_DEF	170.000	210.000	210.000	 92.620
MET_DEF	4	4
RESOLUTION	384
CLK_DEF	384
COMPATIBLE_CODE	MA2

BPM	0	0	170.000
BPM	15	0	158.850
BPM	15	96	136.700
BPM	15	192	114.660
BPM	15	288	 92.620
BPM	16	0	210.000
MET	0	0	4	4
MET	92	0	4	2
MET	92	192	4	4

HLD	2	0	5	384
TAP	2	192	3
HLD	3	0	4	384
TAP	3	192	5
HLD	4	0	3	384
TAP	4	192	4
TAP	5	0	2
TAP	5	192	2
HLD	6	0	2	384
TAP	6	192	4
HLD	7	0	3	384
TAP	7	192	2
HLD	8	0	4	384
TAP	8	192	3
TAP	9	0	5
TAP	9	192	5
HLD	10	0	5	384
TAP	10	192	2
HLD	11	0	7	384
TAP	11	192	5
HLD	12	0	0	384
TAP	12	192	7
TAP	13	0	2
TAP	13	192	2
TAP	14	0	2
STR	14	192	2
SCL	14	192	2	96	384	5
TAP	16	0	3
TAP	16	0	4
TAP	16	96	3
TAP	16	96	4
TAP	16	192	2
TAP	16	192	4
TAP	16	288	2
TAP	16	288	4
TAP	17	0	3
TAP	17	0	5
TAP	17	96	3
TAP	17	96	5
TAP	17	192	1
TAP	17	192	4
TAP	17	288	1
TAP	17	288	4
TAP	18	0	3
TAP	18	0	6
TAP	18	96	3
TAP	18	96	6
TAP	18	192	3
TAP	18	192	4
STR	18	288	1
SI_	18	288	1	96	96	4
STR	18	288	6
SI_	18	288	6	96	96	3
BRK	19	192	1
BRK	19	192	6
TAP	20	0	3
TAP	20	0	5
TAP	20	96	3
TAP	20	192	1
TAP	20	192	3
TAP	20	288	3
TAP	21	0	3
TAP	21	0	5
TAP	21	96	2
TAP	21	96	4
TAP	21	192	0
TAP	21	192	3
TAP	21	288	1
TAP	22	0	2
TAP	22	0	4
TAP	22	96	4
TAP	22	192	4
TAP	22	192	6
TAP	22	288	4
TAP	23	0	2
TAP	23	0	4
TAP	23	96	3
TAP	23	96	5
TAP	23	192	4
TAP	23	192	7
TAP	23	288	6
TAP	24	0	3
TAP	24	0	5
TAP	24	96	3
TAP	24	192	1
TAP	24	192	3
TAP	24	288	3
TAP	25	0	3
TAP	25	0	5
TAP	25	96	2
TAP	25	96	4
TAP	25	192	0
TAP	25	192	3
TAP	25	288	1
HLD	26	0	5	192
TAP	26	96	4
HLD	26	192	2	192
TAP	26	288	3
TAP	27	0	4
TAP	27	96	3
TAP	27	96	4
BRK	27	192	1
BRK	27	192	6
TAP	28	0	5
TAP	28	96	4
TAP	28	96	6
TAP	28	192	2
TAP	28	288	1
TAP	28	288	3
TAP	29	0	6
TAP	29	96	4
TAP	29	192	3
TAP	29	288	1
TAP	30	0	2
TAP	30	96	1
TAP	30	96	3
TAP	30	192	5
TAP	30	288	4
TAP	30	288	6
TAP	31	0	1
TAP	31	96	3
TAP	31	192	4
TAP	31	288	6
TAP	32	0	5
TAP	32	96	4
TAP	32	96	6
TAP	32	192	2
TAP	32	288	1
TAP	32	288	3
STR	33	0	6
SI_	33	0	6	96	96	2
STR	33	0	7
SI_	33	0	7	96	96	2
TAP	33	288	3
TAP	33	288	4
TAP	34	0	1
TAP	34	96	0
TAP	34	96	2
TAP	34	192	6
TAP	34	288	5
TAP	34	288	7
TAP	35	0	3
TAP	35	0	4
TAP	35	96	2
TAP	35	96	5
TAP	35	192	1
TAP	35	192	6
TAP	36	0	1
TAP	36	96	0
TAP	36	96	2
TAP	36	192	5
TAP	36	288	4
TAP	36	288	6
TAP	37	0	2
TAP	37	96	0
TAP	37	192	7
TAP	37	288	5
TAP	38	0	6
TAP	38	96	5
TAP	38	96	7
TAP	38	192	2
TAP	38	288	1
TAP	38	288	3
TAP	39	0	5
TAP	39	96	7
TAP	39	192	0
TAP	39	288	2
TAP	40	0	1
TAP	40	96	0
TAP	40	96	2
TAP	40	192	5
TAP	40	288	4
TAP	40	288	6
STR	41	0	5
SI_	41	0	5	96	96	2
STR	41	0	6
SI_	41	0	6	96	96	1
TAP	41	288	0
TAP	41	288	7
TAP	42	0	1
TAP	42	0	6
TAP	42	96	2
TAP	42	96	5
TAP	42	192	3
TAP	42	192	4
STR	42	288	3
SCL	42	288	3	96	192	0
STR	42	288	4
SCR	42	288	4	96	192	7
TAP	44	0	4
TAP	44	0	5
TAP	44	96	5
TAP	44	192	5
TAP	44	192	7
TAP	44	288	5
TAP	45	0	3
TAP	45	0	5
TAP	45	96	5
TAP	45	192	0
TAP	45	192	5
TAP	45	288	5
TAP	46	0	2
TAP	46	0	3
TAP	46	96	2
TAP	46	192	0
TAP	46	192	2
TAP	46	288	2
STR	47	0	2
SCL	47	0	2	96	192	5
TAP	47	0	4
TAP	48	0	0
TAP	48	0	1
TAP	48	96	1
TAP	48	192	1
TAP	48	192	3
TAP	48	288	1
TAP	49	0	1
TAP	49	0	7
TAP	49	96	1
TAP	49	192	1
TAP	49	192	4
TAP	49	288	1
TAP	50	0	6
TAP	50	0	7
TAP	50	96	6
TAP	50	192	4
TAP	50	192	6
TAP	50	288	6
TAP	51	0	1
TAP	51	0	6
TAP	51	192	0
TAP	51	192	7
TAP	51	288	3
TAP	51	288	4
TAP	52	0	2
HLD	52	0	5	192
TAP	52	96	4
HLD	52	192	2	192
TAP	52	288	3
HLD	53	0	6	192
TAP	53	96	7
HLD	53	192	1	192
TAP	53	288	0
HLD	54	0	5	192
TAP	54	96	4
HLD	54	192	2	96
STR	54	288	3
SF_	54	288	3	96	192	7
TAP	55	288	4
TAP	56	0	5
TAP	56	96	6
HLD	56	192	7	384
TAP	56	288	3
TAP	57	0	2
TAP	57	96	1
HLD	57	192	0	480
STR	57	288	4
SCL	57	288	4	96	288	5
BRK	59	0	1
BRK	59	0	6
TAP	59	192	3
TAP	59	192	4
TAP	60	0	4
TAP	60	0	6
TAP	60	96	3
TAP	60	96	4
HLD	60	192	1	384
STR	60	192	3
SUR	60	192	3	96	192	6
TAP	61	192	0
TAP	61	288	2
TAP	61	288	7
TAP	62	0	1
TAP	62	0	3
TAP	62	96	3
TAP	62	96	4
STR	62	192	4
SUL	62	192	4	96	192	1
HLD	62	192	6	384
TAP	63	192	7
TAP	63	288	0
TAP	63	288	5
TAP	64	0	4
HLD	64	0	5	288
TAP	64	96	6
TAP	64	192	0
TAP	64	288	2
HLD	65	0	2	288
TAP	65	0	3
TAP	65	96	1
TAP	65	192	7
STR	65	288	5
SCR	65	288	5	96	192	2
TAP	67	0	2
TAP	67	96	1
TAP	67	96	3
TAP	67	192	5
TAP	67	288	4
TAP	67	288	6
TAP	68	0	2
TAP	68	0	3
TAP	68	96	2
TAP	68	96	4
TAP	68	192	2
TAP	68	192	6
TAP	68	288	2
TAP	68	288	7
TAP	69	0	4
TAP	69	0	5
TAP	69	96	3
TAP	69	96	5
TAP	69	192	1
TAP	69	192	5
TAP	69	288	0
TAP	69	288	5
STR	70	0	2
SCL	70	0	2	96	96	7
STR	70	192	6
SCL	70	192	6	96	96	3
HLD	71	0	0	192
TAP	71	192	7
TAP	71	288	1
TAP	71	288	6
STR	72	0	1
SI_	72	0	1	96	96	4
STR	72	0	6
SI_	72	0	6	96	96	3
HLD	72	288	4	96
HLD	73	0	6	96
HLD	73	96	0	96
HLD	73	192	2	96
STR	73	288	4
SI_	73	288	4	96	384	0
TAP	74	0	3
TAP	74	96	3
TAP	74	192	3
TAP	74	288	3
TAP	75	0	3
TAP	75	96	3
TAP	75	192	3
TAP	75	192	4
TAP	75	288	2
TAP	75	288	5
TAP	76	0	1
TAP	76	0	4
TAP	76	96	2
TAP	76	96	3
TAP	76	192	5
TAP	76	240	5
TAP	76	288	4
TAP	77	0	3
TAP	77	0	6
TAP	77	96	2
TAP	77	96	4
HLD	77	192	1	96
TAP	77	192	3
TAP	77	288	2
TAP	78	0	3
TAP	78	0	6
TAP	78	96	4
TAP	78	96	5
TAP	78	192	2
TAP	78	240	2
TAP	78	288	3
TAP	79	0	1
TAP	79	0	4
TAP	79	96	3
TAP	79	96	5
TAP	79	192	4
HLD	79	192	6	96
TAP	79	288	5
TAP	80	0	1
TAP	80	0	4
TAP	80	96	2
TAP	80	96	3
TAP	80	192	5
TAP	80	240	5
TAP	80	288	4
TAP	81	0	3
TAP	81	0	6
TAP	81	96	2
TAP	81	96	4
HLD	81	192	1	96
TAP	81	192	3
TAP	81	288	2
TAP	82	0	3
TAP	82	0	6
TAP	82	96	4
TAP	82	96	5
TAP	82	192	2
TAP	82	240	2
TAP	82	288	3
TAP	83	0	7
TAP	83	48	7
TAP	83	96	0
TAP	83	144	0
TAP	83	192	7
TAP	83	288	2
TAP	83	288	5
TAP	84	0	3
TAP	84	0	6
TAP	84	96	0
TAP	84	96	1
TAP	84	192	6
TAP	84	240	6
TAP	84	288	7
TAP	85	0	0
TAP	85	0	5
TAP	85	96	1
TAP	85	96	7
TAP	85	192	0
HLD	85	192	2	96
TAP	85	288	3
STR	86	0	1
SI_	86	0	1	96	96	4
STR	86	96	6
SI_	86	96	6	96	96	3
TAP	86	192	0
TAP	86	288	0
STR	87	0	6
SI_	87	0	6	96	96	2
STR	87	96	1
SI_	87	96	1	96	96	5
TAP	87	192	7
TAP	87	288	7
TAP	88	0	1
TAP	88	0	4
TAP	88	96	6
TAP	88	96	7
TAP	88	192	1
TAP	88	240	1
TAP	88	288	0
TAP	89	0	2
TAP	89	0	7
TAP	89	96	0
TAP	89	96	6
HLD	89	192	5	96
TAP	89	192	7
TAP	89	288	4
TAP	90	0	2
TAP	90	0	3
TAP	90	96	4
TAP	90	96	5
TAP	90	192	1
TAP	90	192	3
TAP	90	288	4
TAP	90	288	6
TAP	91	0	0
TAP	91	48	0
TAP	91	96	7
BRK	91	192	1
BRK	91	192	6
HLD	92	192	3	576
STR	92	192	4
SCR	92	192	4	96	384	0
STR	94	192	3
SCL	94	192	3	96	384	7
HLD	94	192	4	576
HLD	96	192	3	288
STR	96	192	4
SI_	96	192	4	96	192	7
STR	97	192	3
SI_	97	192	3	96	192	0
HLD	97	192	4	288
TAP	98	192	1
TAP	98	192	3
TAP	98	288	4
TAP	98	288	6
TAP	99	0	2
TAP	99	0	3
TAP	99	96	4
TAP	99	96	5
TAP	99	192	3
TAP	99	192	4
STR	99	288	3
SI_	99	288	3	96	96	0
STR	99	288	4
SI_	99	288	4	96	96	7
TAP	100	192	6
TAP	100	192	7
TAP	100	288	0
TAP	100	288	6
TAP	101	0	2
TAP	101	0	6
TAP	101	96	3
TAP	101	96	6
TAP	101	192	0
TAP	101	192	1
TAP	101	288	1
TAP	101	288	7
TAP	102	0	1
TAP	102	0	5
TAP	102	96	1
TAP	102	96	4
STR	102	192	5
SCR	102	192	5	96	96	0
STR	103	0	1
SCR	103	0	1	96	96	4
HLD	103	192	7	192
TAP	104	0	0
TAP	104	96	1
TAP	104	96	6
STR	104	192	2
SI_	104	192	2	96	96	7
STR	104	192	5
SI_	104	192	5	96	96	0
HLD	105	96	3	96
HLD	105	192	1	96
HLD	105	288	7	96
HLD	106	0	5	96
STR	106	96	3
SI_	106	96	3	96	384	7
TAP	106	192	4
TAP	106	288	4
TAP	107	0	4
TAP	107	96	4
TAP	107	192	4
TAP	107	288	4
TAP	108	0	4
TAP	108	96	4
TAP	108	192	2
TAP	108	192	3
TAP	108	288	1
TAP	108	288	4
TAP	109	0	0
TAP	109	0	5
TAP	109	96	6
TAP	109	96	7
TAP	109	192	4
TAP	109	192	5
TAP	109	288	3
TAP	109	288	6
TAP	110	0	2
TAP	110	0	7
BST	110	96	0
SCR	110	96	0	96	1632	7
TAP	110	96	1

T_REC_TAP	415
T_REC_BRK	8
T_REC_XTP	0
T_REC_HLD	42
T_REC_XHO	0
T_REC_STR	35
T_REC_BST	1
T_REC_XST	0
T_REC_TTP	0
T_REC_THO	0
T_REC_SLD	36
T_REC_ALL	537
T_NUM_TAP	450
T_NUM_BRK	9
T_NUM_HLD	42
T_NUM_SLD	36
T_NUM_ALL	537
T_JUDGE_TAP	459
T_JUDGE_HLD	218
T_JUDGE_SLD	36
T_JUDGE_ALL	713
TTM_EACHPAIRS	159
TTM_SCR_TAP	225000
TTM_SCR_BRK	23400
TTM_SCR_HLD	42000
TTM_SCR_SLD	54000
TTM_SCR_ALL	344400
TTM_SCR_S	333200
TTM_SCR_SS	343500
TTM_RAT_ACV	10026

