VERSION	0.00.00	1.03.00
FES_MODE	0
BPM_DEF	170.000	210.000	210.000	 92.620
MET_DEF	4	4
RESOLUTION	384
CLK_DEF	384
COMPATIBLE_CODE	MA2

BPM	0	0	170.000
BPM	15	0	158.850
BPM	15	96	136.700
BPM	15	192	114.660
BPM	15	288	 92.620
BPM	16	0	210.000
MET	0	0	4	4
MET	92	0	4	2
MET	92	192	4	4

HLD	2	0	3	384
HLD	3	0	2	384
HLD	4	0	1	384
TAP	5	0	0
TAP	5	192	0
HLD	6	0	7	384
HLD	7	0	6	384
HLD	8	0	5	384
TAP	9	0	4
TAP	9	192	3
TAP	9	192	6
HLD	10	0	0	384
HLD	11	0	1	384
HLD	12	0	2	384
TAP	13	0	3
TAP	13	192	3
STR	14	0	3
SXR	14	0	3	96	480	0
STR	14	0	4
SXL	14	0	4	96	480	7
TAP	16	0	0
TAP	16	0	7
TAP	16	96	0
TAP	16	96	7
TAP	16	192	0
TAP	16	192	7
TAP	16	288	0
TAP	16	288	7
TAP	17	0	1
TAP	17	0	6
TAP	17	96	1
TAP	17	96	6
TAP	17	192	1
TAP	17	192	6
TAP	18	0	2
TAP	18	96	2
TAP	18	192	5
TAP	18	288	5
TAP	19	0	3
TAP	19	0	4
TAP	19	96	2
TAP	19	96	5
BRK	19	192	1
BRK	19	192	6
TAP	20	0	2
TAP	20	96	2
TAP	20	192	1
TAP	20	192	3
TAP	21	0	5
TAP	21	96	5
TAP	21	192	4
TAP	21	192	6
TAP	22	0	2
TAP	22	96	2
TAP	22	192	3
TAP	22	288	3
TAP	23	0	4
TAP	23	0	5
TAP	23	192	6
TAP	23	192	7
TAP	24	0	6
TAP	24	96	6
TAP	24	192	5
TAP	24	192	7
TAP	25	0	1
TAP	25	96	1
TAP	25	192	0
TAP	25	192	2
TAP	26	0	6
TAP	26	0	7
TAP	26	192	0
TAP	26	192	1
TAP	27	0	0
TAP	27	0	7
TAP	27	96	0
TAP	27	96	7
BRK	27	192	1
BRK	27	192	6
TAP	28	0	2
TAP	28	0	3
TAP	28	192	2
TAP	28	192	3
TAP	29	0	2
TAP	29	96	2
TAP	29	192	3
TAP	30	0	4
TAP	30	0	5
TAP	30	192	4
TAP	30	192	5
TAP	31	0	5
TAP	31	96	5
TAP	31	192	4
TAP	31	288	4
TAP	32	0	2
TAP	32	0	3
TAP	32	192	2
TAP	32	192	3
TAP	33	0	2
TAP	33	96	2
TAP	33	192	3
STR	34	0	4
SI_	34	0	4	96	288	7
TAP	35	192	0
TAP	35	192	7
TAP	36	0	0
TAP	36	0	1
TAP	36	192	0
TAP	36	192	1
TAP	37	0	1
TAP	37	96	1
TAP	37	192	0
TAP	38	0	6
TAP	38	0	7
TAP	38	192	6
TAP	38	192	7
TAP	39	0	6
TAP	39	96	6
TAP	39	192	7
TAP	39	288	7
TAP	40	0	0
TAP	40	0	1
TAP	40	192	0
TAP	40	192	1
TAP	41	0	1
TAP	41	96	1
TAP	41	192	0
TAP	42	0	0
TAP	42	0	7
TAP	42	192	0
TAP	42	192	7
HLD	43	0	0	192
HLD	43	0	7	192
HLD	44	0	2	192
TAP	44	192	3
HLD	45	0	5	192
TAP	45	192	4
HLD	46	0	1	192
TAP	46	192	2
HLD	47	0	6	192
TAP	47	192	5
HLD	48	0	1	192
TAP	48	192	0
HLD	49	0	6	192
TAP	49	192	7
STR	50	0	0
SI_	50	0	0	96	288	3
STR	50	0	7
SI_	50	0	7	96	288	4
TAP	51	192	1
TAP	51	192	6
HLD	52	0	1	192
TAP	52	192	0
HLD	53	0	6	192
TAP	53	192	7
HLD	54	0	2	192
TAP	54	192	3
HLD	55	0	5	192
TAP	55	192	4
TAP	56	0	2
TAP	56	96	3
TAP	56	192	2
TAP	56	192	3
TAP	57	0	5
TAP	57	96	4
TAP	57	192	4
TAP	57	192	5
TAP	58	0	0
TAP	58	0	7
TAP	58	96	0
TAP	58	96	7
TAP	58	192	0
TAP	58	192	7
TAP	58	288	0
TAP	58	288	7
BRK	59	0	1
BRK	59	0	6
TAP	59	192	0
TAP	59	192	7
TAP	60	0	0
TAP	60	96	1
TAP	60	192	2
TAP	60	192	7
TAP	61	0	7
TAP	61	96	6
TAP	61	192	0
TAP	61	192	5
TAP	62	0	0
TAP	62	96	0
TAP	62	192	7
TAP	62	288	7
HLD	63	0	1	192
HLD	63	0	6	192
TAP	64	0	3
TAP	64	96	2
TAP	64	192	1
TAP	64	192	4
TAP	65	0	4
TAP	65	96	5
TAP	65	192	3
TAP	65	192	6
HLD	66	0	0	384
HLD	66	0	7	384
TAP	67	192	0
TAP	67	288	0
TAP	68	0	7
TAP	68	96	6
TAP	68	192	0
TAP	68	192	5
TAP	69	0	0
TAP	69	96	1
TAP	69	192	2
TAP	69	192	7
TAP	70	0	4
TAP	70	0	5
TAP	70	192	2
TAP	70	192	3
HLD	71	0	0	192
HLD	71	0	7	192
TAP	72	0	4
TAP	72	0	5
TAP	72	96	4
TAP	72	96	5
TAP	72	192	4
TAP	72	192	5
TAP	73	0	2
TAP	73	0	3
TAP	73	96	2
TAP	73	96	3
TAP	73	192	2
TAP	73	192	3
TAP	74	0	0
TAP	74	0	7
TAP	74	96	0
TAP	74	96	7
TAP	74	192	0
TAP	74	192	7
TAP	74	288	0
TAP	74	288	7
TAP	75	0	1
TAP	75	0	6
TAP	75	96	1
TAP	75	96	6
BRK	75	192	1
BRK	75	192	6
TAP	76	0	5
TAP	76	96	5
TAP	76	192	4
TAP	76	192	6
TAP	77	0	2
TAP	77	96	2
TAP	77	192	1
TAP	77	192	3
TAP	78	0	5
TAP	78	96	5
TAP	78	192	4
TAP	78	288	4
TAP	79	0	2
TAP	79	0	3
TAP	79	192	0
TAP	79	192	1
TAP	80	0	1
TAP	80	96	1
TAP	80	192	0
TAP	80	192	2
TAP	81	0	6
TAP	81	96	6
TAP	81	192	5
TAP	81	192	7
TAP	82	0	0
TAP	82	0	1
TAP	82	192	6
TAP	82	192	7
TAP	83	0	0
TAP	83	0	7
TAP	83	96	0
TAP	83	96	7
BRK	83	192	1
BRK	83	192	6
TAP	84	0	1
TAP	84	96	1
TAP	84	192	0
TAP	84	192	2
TAP	85	0	6
TAP	85	96	6
TAP	85	192	5
TAP	85	192	7
TAP	86	0	1
TAP	86	96	1
TAP	86	192	0
TAP	86	288	0
TAP	87	0	6
TAP	87	0	7
TAP	87	192	4
TAP	87	192	5
TAP	88	0	5
TAP	88	96	5
TAP	88	192	4
TAP	88	192	6
TAP	89	0	2
TAP	89	96	2
TAP	89	192	1
TAP	89	192	3
TAP	90	0	4
TAP	90	0	5
TAP	90	192	2
TAP	90	192	3
TAP	91	0	3
TAP	91	0	4
TAP	91	96	2
TAP	91	96	5
BRK	91	192	1
BRK	91	192	6
HLD	92	192	2	384
HLD	93	192	3	384
HLD	94	192	4	384
TAP	95	192	5
TAP	96	0	5
HLD	96	192	5	384
HLD	97	192	4	384
TAP	98	192	3
TAP	98	288	3
TAP	99	0	2
TAP	99	96	2
TAP	99	192	3
TAP	99	192	4
TAP	100	0	1
TAP	100	0	6
TAP	100	192	1
TAP	100	288	1
TAP	101	0	0
TAP	101	96	0
TAP	101	192	7
TAP	101	288	7
TAP	102	0	6
TAP	102	96	6
HLD	102	192	0	288
HLD	103	0	7	96
HLD	103	192	1	192
HLD	103	192	6	192
TAP	104	192	4
TAP	104	192	6
TAP	104	288	4
TAP	104	288	6
TAP	105	0	4
TAP	105	0	6
TAP	105	192	1
TAP	105	192	3
TAP	105	288	1
TAP	105	288	3
TAP	106	0	1
TAP	106	0	3
TAP	106	192	7
TAP	106	288	7
TAP	107	0	6
TAP	107	96	6
TAP	107	192	5
TAP	107	288	5
TAP	108	0	6
TAP	108	0	7
TAP	108	192	0
TAP	108	288	0
TAP	109	0	1
TAP	109	96	1
TAP	109	192	2
TAP	109	288	2
TAP	110	0	0
TAP	110	0	1
TAP	110	96	0
BST	110	96	1
SCR	110	96	1	96	1536	0

T_REC_TAP	310
T_REC_BRK	12
T_REC_XTP	0
T_REC_HLD	36
T_REC_XHO	0
T_REC_STR	5
T_REC_BST	1
T_REC_XST	0
T_REC_TTP	0
T_REC_THO	0
T_REC_SLD	6
T_REC_ALL	370
T_NUM_TAP	315
T_NUM_BRK	13
T_NUM_HLD	36
T_NUM_SLD	6
T_NUM_ALL	370
T_JUDGE_TAP	328
T_JUDGE_HLD	208
T_JUDGE_SLD	6
T_JUDGE_ALL	542
TTM_EACHPAIRS	107
TTM_SCR_TAP	157500
TTM_SCR_BRK	33800
TTM_SCR_HLD	36000
TTM_SCR_SLD	9000
TTM_SCR_ALL	236300
TTM_SCR_S	227950
TTM_SCR_SS	235000
TTM_RAT_ACV	10055

