VERSION	0.00.00	1.03.00
FES_MODE	0
BPM_DEF	170.000	210.000	210.000	 92.620
MET_DEF	4	4
RESOLUTION	384
CLK_DEF	384
COMPATIBLE_CODE	MA2

BPM	0	0	170.000
BPM	15	0	158.850
BPM	15	96	136.700
BPM	15	192	114.660
BPM	15	288	 92.620
BPM	16	0	210.000
MET	0	0	4	4
MET	92	0	4	2
MET	92	192	4	4

TAP	10	0	3
TAP	11	0	4
TAP	12	0	5
TAP	13	0	6
TAP	14	0	7
HLD	15	0	0	384
TAP	18	0	7
TAP	18	192	7
BRK	19	0	7
TAP	20	0	6
TAP	20	192	6
TAP	21	0	6
TAP	22	0	5
TAP	22	192	5
TAP	23	0	5
TAP	24	0	4
TAP	24	192	4
TAP	25	0	4
TAP	26	0	3
TAP	26	192	2
TAP	27	0	3
BRK	27	192	2
HLD	28	0	3	384
HLD	30	0	2	384
HLD	32	0	1	384
HLD	34	0	0	384
TAP	36	0	7
TAP	36	192	7
TAP	37	0	0
TAP	37	96	0
TAP	37	192	0
TAP	38	0	1
TAP	38	192	1
TAP	39	0	2
TAP	39	96	2
TAP	39	192	2
TAP	40	0	3
TAP	40	192	3
TAP	41	0	4
TAP	41	96	4
TAP	41	192	4
TAP	42	0	5
TAP	42	192	5
TAP	43	0	6
TAP	43	96	6
TAP	43	192	6
STR	44	0	7
SI_	44	0	7	96	288	4
STR	46	0	0
SI_	46	0	0	96	288	3
STR	48	0	7
SI_	48	0	7	96	288	2
STR	50	0	0
SI_	50	0	0	96	288	5
TAP	52	0	0
TAP	52	192	0
TAP	53	0	1
TAP	53	192	1
TAP	54	0	2
TAP	54	192	2
TAP	55	0	2
TAP	55	0	3
TAP	56	0	4
TAP	56	192	4
TAP	57	0	5
TAP	57	192	5
TAP	58	0	6
TAP	58	192	6
BRK	59	0	6
BRK	59	0	7
TAP	60	0	0
TAP	60	96	0
TAP	60	192	0
TAP	61	0	7
TAP	61	96	7
TAP	61	192	7
TAP	62	0	6
TAP	62	96	6
TAP	62	192	6
TAP	63	0	5
TAP	63	96	5
TAP	63	192	5
TAP	64	0	4
TAP	64	96	4
TAP	64	192	4
TAP	65	0	3
TAP	65	96	3
TAP	65	192	3
TAP	66	0	2
TAP	66	0	3
TAP	66	192	2
TAP	66	192	3
TAP	67	0	2
TAP	67	0	3
TAP	68	0	1
TAP	68	96	1
TAP	68	192	1
TAP	69	0	2
TAP	69	96	2
TAP	69	192	2
TAP	70	0	3
TAP	70	96	3
TAP	70	192	3
TAP	71	0	4
TAP	71	96	4
TAP	71	192	4
TAP	72	0	5
TAP	72	96	5
TAP	72	192	5
TAP	73	0	6
TAP	73	96	6
TAP	73	192	6
TAP	74	0	0
TAP	74	0	7
TAP	74	192	0
TAP	74	192	7
TAP	75	0	0
TAP	75	0	7
TAP	76	0	1
TAP	76	192	1
TAP	77	0	0
TAP	77	0	1
TAP	78	0	6
TAP	78	192	6
TAP	79	0	6
TAP	79	0	7
TAP	80	0	5
TAP	80	192	5
TAP	81	0	4
TAP	81	0	5
TAP	82	0	2
TAP	82	192	2
TAP	83	0	2
TAP	83	0	3
TAP	84	0	1
TAP	84	96	1
TAP	84	192	1
TAP	85	0	2
TAP	85	96	2
TAP	85	192	2
TAP	86	0	3
TAP	86	96	3
TAP	86	192	3
TAP	87	0	4
TAP	87	96	4
TAP	87	192	3
TAP	87	192	4
TAP	88	0	5
TAP	88	96	5
TAP	88	192	5
TAP	89	0	6
TAP	89	96	6
TAP	89	192	6
TAP	90	0	7
TAP	90	96	7
TAP	90	192	7
TAP	91	0	0
TAP	91	96	0
BRK	91	192	0
BRK	91	192	7
STR	92	192	0
SI_	92	192	0	96	288	4
STR	94	192	7
SI_	94	192	7	96	288	3
STR	96	192	0
SI_	96	192	0	96	288	5
STR	98	192	7
SI_	98	192	7	96	288	2
TAP	100	192	0
TAP	100	288	0
TAP	101	0	0
TAP	101	192	7
TAP	101	288	7
TAP	102	0	7
TAP	102	192	6
TAP	102	288	6
TAP	103	0	6
TAP	103	192	4
TAP	103	192	5
TAP	103	288	4
TAP	103	288	5
TAP	104	0	4
TAP	104	0	5
TAP	104	192	3
TAP	104	288	3
TAP	105	0	3
TAP	105	192	2
TAP	105	288	2
TAP	106	0	2
TAP	106	192	1
TAP	106	288	1
TAP	107	0	1
TAP	107	192	0
TAP	107	288	0
TAP	108	0	0
TAP	108	192	7
TAP	108	288	7
TAP	109	0	7
TAP	109	192	0
TAP	109	192	7
TAP	109	288	0
TAP	109	288	7
BRK	110	0	0
BRK	110	0	7

T_REC_TAP	175
T_REC_BRK	8
T_REC_XTP	0
T_REC_HLD	5
T_REC_XHO	0
T_REC_STR	8
T_REC_BST	0
T_REC_XST	0
T_REC_TTP	0
T_REC_THO	0
T_REC_SLD	8
T_REC_ALL	204
T_NUM_TAP	183
T_NUM_BRK	8
T_NUM_HLD	5
T_NUM_SLD	8
T_NUM_ALL	204
T_JUDGE_TAP	191
T_JUDGE_HLD	44
T_JUDGE_SLD	8
T_JUDGE_ALL	243
TTM_EACHPAIRS	20
TTM_SCR_TAP	91500
TTM_SCR_BRK	20800
TTM_SCR_HLD	5000
TTM_SCR_SLD	12000
TTM_SCR_ALL	129300
TTM_SCR_S	124650
TTM_SCR_SS	128500
TTM_RAT_ACV	10062

