VERSION	0.00.00	1.03.00
FES_MODE	0
BPM_DEF	150.000	150.000	150.000	150.000
MET_DEF	4	4
RESOLUTION	384
CLK_DEF	384
COMPATIBLE_CODE	MA2

BPM	0	0	150.000
MET	0	0	4	4

HLD	1	0	4	192
HLD	1	192	3	192
HLD	2	0	2	240
TAP	2	240	1
TAP	2	288	0
HLD	2	336	7	96
HLD	3	48	0	96
HLD	3	144	1	96
HLD	3	240	2	96
HLD	3	336	7	96
HLD	4	48	6	96
HLD	4	144	5	96
HLD	4	240	4	96
TAP	4	336	3
HLD	5	0	3	192
HLD	5	192	4	192
HLD	6	0	5	240
TAP	6	240	6
TAP	6	288	7
HLD	6	336	0	96
HLD	7	48	7	96
HLD	7	144	6	96
HLD	7	240	5	96
STR	7	336	4
SF_	7	336	4	96	240	0
HLD	9	0	1	96
TAP	9	0	4
TAP	9	96	4
HLD	9	192	0	96
TAP	9	192	4
TAP	9	288	4
TAP	10	0	4
HLD	10	0	7	192
TAP	10	96	4
TAP	10	192	4
TAP	10	240	0
TAP	10	288	1
TAP	10	288	4
TAP	10	336	2
TAP	11	0	4
TAP	11	48	0
TAP	11	96	4
TAP	11	144	1
TAP	11	192	4
TAP	11	240	2
TAP	11	288	4
TAP	11	336	3
TAP	12	0	4
TAP	12	48	0
TAP	12	96	4
TAP	12	144	7
TAP	12	192	4
TAP	12	240	6
TAP	12	288	4
TAP	12	336	5
TAP	13	0	3
TAP	13	0	4
TAP	13	72	2
TAP	13	96	2
TAP	13	96	3
TAP	13	168	5
TAP	13	192	4
TAP	13	192	5
TAP	13	264	2
TAP	13	288	2
TAP	13	288	3
TAP	13	336	4
TAP	13	336	5
TAP	14	0	2
TAP	14	0	4
TAP	14	48	1
TAP	14	48	3
TAP	14	96	0
TAP	14	96	2
TAP	14	144	1
TAP	14	144	7
TAP	14	192	0
TAP	14	192	6
TAP	14	240	5
TAP	14	240	7
TAP	14	288	4
TAP	14	288	6
TAP	14	336	3
TAP	14	336	5
TAP	15	0	2
TAP	15	24	2
TAP	15	48	1
TAP	15	72	1
TAP	15	96	0
TAP	15	120	0
TAP	15	144	7
TAP	15	168	7
TAP	15	192	6
TAP	15	216	6
TAP	15	240	5
TAP	15	264	5
TAP	15	288	4
TAP	15	312	4
TAP	15	336	3
TAP	15	360	3
TAP	16	0	1
TAP	16	0	4
TAP	16	48	2
TAP	16	64	3
TAP	16	80	2
TAP	16	96	3
TAP	16	144	3
TAP	16	144	6
TAP	16	192	5
TAP	16	208	4
TAP	16	224	5
TAP	16	240	4
BRK	16	288	1
BRK	16	288	6
HLD	17	0	0	90
HLD	17	0	4	90
STR	17	96	1
SI_	17	96	1	96	48	5
TAP	17	108	2
TAP	17	120	3
TAP	17	132	4
STR	17	144	5
SI_	17	144	5	96	48	1
TAP	17	156	6
TAP	17	168	7
TAP	17	180	0
BRK	17	192	1
HLD	17	192	4	192
STR	18	0	0
SXL	18	0	0	96	144	5
BRK	18	192	7
TAP	18	288	4
STR	18	336	4
SI_	18	336	4	96	48	1
SI_	18	336	4	96	48	7
TAP	19	48	4
BRK	19	192	0
HLD	19	192	7	96
HLD	19	288	6	96
HLD	20	0	5	144
STR	20	144	4
SXR	20	144	4	96	144	1
BRK	20	240	7
BRK	20	288	7
BRK	20	336	7
TAP	21	0	5
TAP	21	48	6
HLD	21	192	2	96
BRK	21	192	3
HLD	21	288	0	96
STR	22	0	5
SXL	22	0	5	96	144	1
BRK	22	192	4
TAP	22	288	4
TAP	22	336	5
STR	23	0	6
SUL	23	0	6	96	96	3
TAP	23	12	5
TAP	23	24	4
TAP	23	36	3
TAP	23	48	2
TAP	23	60	1
TAP	23	72	0
TAP	23	84	7
TAP	23	96	6
BST	23	192	0
SI_	23	192	0	96	24	4
TAP	23	264	0
BST	23	264	6
SI_	23	264	6	96	24	3
BST	23	336	1
SI_	23	336	1	96	48	5
TAP	23	336	6
TAP	24	96	4
TAP	24	192	6
TAP	24	216	6
TAP	24	264	3
TAP	24	264	4
TAP	24	312	1
TAP	24	336	1
BRK	25	0	0
STR	25	0	3
SI_	25	0	3	96	48	7
STR	25	192	3
SXR	25	192	3	96	96	3
BRK	25	192	7
STR	26	0	7
SXR	26	0	7	96	144	2
BRK	26	192	0
TAP	26	288	3
STR	26	336	3
SI_	26	336	3	96	48	0
SI_	26	336	3	96	48	6
TAP	27	48	3
HLD	27	192	0	96
BRK	27	192	7
HLD	27	288	1	96
HLD	28	0	2	144
STR	28	144	3
SXL	28	144	3	96	144	6
BRK	28	240	0
BRK	28	288	0
BRK	28	336	0
TAP	29	0	2
TAP	29	48	1
BRK	29	192	4
HLD	29	192	5	96
HLD	29	288	7	96
STR	30	0	2
SXR	30	0	2	96	144	6
BRK	30	192	3
STR	30	288	0
SLR	30	288	0	96	96	5
STR	30	288	4
SLR	30	288	4	96	96	1
TAP	30	336	2
TAP	30	336	6
BST	31	192	7
SI_	31	192	7	96	24	3
BST	31	264	1
SI_	31	264	1	96	24	4
TAP	31	264	7
TAP	31	336	1
BST	31	336	6
SI_	31	336	6	96	48	2
STR	32	96	3
SSR	32	96	3	96	144	7
TAP	33	0	3
HLD	33	0	6	96
TAP	33	96	3
TAP	33	192	3
HLD	33	192	7	96
TAP	33	288	3
HLD	34	0	0	192
TAP	34	0	3
TAP	34	96	3
TAP	34	192	3
TAP	34	240	7
TAP	34	288	3
TAP	34	288	6
TAP	34	336	5
TAP	35	0	3
TAP	35	0	4
TAP	35	48	4
TAP	35	96	3
TAP	35	96	5
TAP	35	144	6
TAP	35	192	3
TAP	35	192	7
TAP	35	288	3
TAP	35	288	5
TAP	35	336	5
TAP	36	0	3
TAP	36	0	6
TAP	36	48	7
TAP	36	96	0
TAP	36	96	3
TAP	36	192	3
TAP	36	192	6
TAP	36	240	7
TAP	36	288	3
TAP	36	288	5
TAP	36	336	4
TAP	36	360	3
TAP	37	0	3
TAP	37	0	4
TAP	37	72	5
TAP	37	96	4
TAP	37	96	5
TAP	37	168	2
TAP	37	192	2
TAP	37	192	3
TAP	37	264	5
TAP	37	288	4
TAP	37	288	5
TAP	37	336	2
TAP	37	336	3
TAP	38	0	3
TAP	38	0	5
TAP	38	48	4
TAP	38	48	6
TAP	38	96	5
TAP	38	96	7
TAP	38	144	0
TAP	38	144	6
TAP	38	192	1
TAP	38	192	7
TAP	38	240	0
TAP	38	240	2
TAP	38	288	1
TAP	38	288	3
TAP	38	336	2
TAP	38	336	4
TAP	39	0	5
TAP	39	24	5
TAP	39	48	6
TAP	39	72	6
TAP	39	96	7
TAP	39	120	7
TAP	39	144	0
TAP	39	168	0
TAP	39	192	1
TAP	39	216	1
TAP	39	240	2
TAP	39	264	2
TAP	39	288	3
TAP	39	312	3
TAP	39	336	4
TAP	39	360	4
TAP	40	0	3
TAP	40	0	6
TAP	40	48	5
TAP	40	64	4
TAP	40	80	5
TAP	40	96	4
TAP	40	144	1
TAP	40	144	4
TAP	40	192	2
TAP	40	208	3
TAP	40	224	2
TAP	40	240	3
TAP	40	288	7
TAP	40	312	7
TAP	40	336	0
TAP	40	360	0
STR	41	0	7
SI_	41	0	7	96	24	4
HLD	41	72	7	72
STR	41	144	0
SI_	41	144	0	96	24	3
HLD	41	216	0	72
TAP	41	288	5
TAP	41	336	3
TAP	41	336	7
STR	42	0	1
SI_	42	0	1	96	24	3
HLD	42	72	1	72
STR	42	144	6
SI_	42	144	6	96	24	4
HLD	42	216	6	72
HLD	42	288	3	96
STR	43	0	4
SCR	43	0	4	96	24	7
HLD	43	72	4	72
STR	43	144	3
SCL	43	144	3	96	24	0
HLD	43	216	3	72
TAP	43	288	7
TAP	43	336	6
TAP	43	360	6
TAP	44	0	1
TAP	44	48	2
TAP	44	96	3
TAP	44	144	4
TAP	44	192	5
TAP	44	240	6
TAP	44	288	0
TAP	44	312	0
TAP	44	336	7
TAP	44	360	7
STR	45	0	0
SI_	45	0	0	96	24	3
HLD	45	72	0	72
STR	45	144	7
SI_	45	144	7	96	24	4
HLD	45	216	7	72
TAP	45	288	2
TAP	45	336	0
TAP	45	336	4
STR	46	0	6
SI_	46	0	6	96	24	4
HLD	46	72	6	72
STR	46	144	1
SI_	46	144	1	96	24	3
HLD	46	216	1	72
HLD	46	288	4	96
STR	47	0	3
SCL	47	0	3	96	24	0
HLD	47	72	3	72
STR	47	144	4
SCR	47	144	4	96	24	7
HLD	47	216	4	72
TAP	47	288	0
TAP	47	336	1
TAP	47	360	1
TAP	48	0	0
TAP	48	0	5
TAP	48	48	6
TAP	48	64	7
TAP	48	80	6
TAP	48	96	7
TAP	48	144	2
TAP	48	144	7
TAP	48	192	1
TAP	48	208	0
TAP	48	224	1
TAP	48	240	0
TAP	48	288	7
TAP	48	304	0
TAP	48	320	7
TAP	48	336	0
TAP	48	352	7
TAP	48	368	0
BRK	49	0	1
BST	49	0	6
SI_	49	0	6	96	48	3
STR	49	96	0
SI_	49	96	0	96	24	4
TAP	49	96	6
TAP	49	168	0
STR	49	168	6
SI_	49	168	6	96	24	2
STR	49	240	3
SI_	49	240	3	96	48	7
TAP	49	240	6
TAP	49	288	3
TAP	49	336	3
STR	50	0	6
SI_	50	0	6	96	24	3
STR	50	72	1
SI_	50	72	1	96	24	6
TAP	50	72	6
TAP	50	144	1
STR	50	144	5
SI_	50	144	5	96	24	2
STR	50	216	0
SI_	50	216	0	96	24	4
TAP	50	216	5
TAP	50	288	0
TAP	50	288	7
STR	51	0	5
SI_	51	0	5	96	24	1
STR	51	72	2
SI_	51	72	2	96	24	6
TAP	51	72	5
TAP	51	144	2
STR	51	144	7
SI_	51	144	7	96	24	3
STR	51	216	0
SI_	51	216	0	96	24	4
TAP	51	216	7
TAP	51	288	0
TAP	51	288	6
TAP	51	336	7
TAP	51	360	7
TAP	52	0	1
TAP	52	48	2
TAP	52	96	3
TAP	52	144	4
TAP	52	192	5
TAP	52	240	6
TAP	52	288	0
TAP	52	312	0
TAP	52	336	7
TAP	52	360	7
HLD	53	0	1	48
HLD	53	0	6	48
HLD	53	72	3	48
HLD	53	72	4	48
HLD	53	144	0	48
HLD	53	144	1	48
HLD	53	216	4	48
HLD	53	216	5	48
HLD	53	288	6	48
HLD	53	288	7	48
HLD	53	360	1	48
HLD	53	360	3	48
HLD	54	48	5	48
HLD	54	48	7	48
HLD	54	120	0	48
HLD	54	120	2	48
HLD	54	192	4	48
HLD	54	192	6	48
HLD	54	264	0	48
HLD	54	264	7	48
TAP	54	336	2
TAP	54	336	5
TAP	55	0	0
TAP	55	16	1
TAP	55	32	2
TAP	55	48	7
TAP	55	64	6
TAP	55	80	5
TAP	55	96	1
TAP	55	112	2
TAP	55	128	3
TAP	55	144	6
TAP	55	160	5
TAP	55	176	4
TAP	55	192	1
TAP	55	208	2
TAP	55	224	3
TAP	55	240	0
TAP	55	256	1
TAP	55	272	2
TAP	55	288	6
TAP	55	304	5
TAP	55	320	4
TAP	55	336	7
TAP	55	352	6
TAP	55	368	5
TAP	56	0	1
TAP	56	0	4
TAP	56	48	2
TAP	56	64	3
TAP	56	80	2
TAP	56	96	3
TAP	56	144	3
TAP	56	144	6
TAP	56	192	5
TAP	56	208	4
TAP	56	224	5
TAP	56	240	4
BRK	56	288	1
BRK	56	288	6
HLD	57	0	3	90
HLD	57	0	7	90
STR	57	96	6
SI_	57	96	6	96	48	2
TAP	57	108	5
TAP	57	120	4
TAP	57	128	3
STR	57	144	2
SXL	57	144	2	96	96	7
TAP	57	156	1
TAP	57	168	0
TAP	57	180	7
HLD	57	192	3	192
BRK	57	192	6
STR	58	0	5
SXR	58	0	5	96	144	1
BRK	58	192	0
TAP	58	288	3
STR	58	336	3
SI_	58	336	3	96	48	0
SI_	58	336	3	96	48	6
TAP	59	48	3
STR	59	192	0
SCR	59	192	0	96	96	3
BRK	59	192	7
STR	59	288	3
SUR	59	288	3	96	96	5
STR	60	0	5
SCR	60	0	5	96	72	0
STR	60	144	4
SXL	60	144	4	96	144	7
BRK	60	240	0
BRK	60	288	0
BRK	60	336	0
TAP	61	0	2
HLD	61	48	1	144
BST	61	192	4
SI_	61	192	4	96	96	7
STR	61	288	7
SI_	61	288	7	96	96	2
STR	62	0	2
SXR	62	0	2	96	144	6
BRK	62	192	3
TAP	62	288	3
TAP	62	336	2
STR	63	0	1
SUR	63	0	1	96	96	4
TAP	63	12	2
TAP	63	24	3
TAP	63	36	4
TAP	63	48	5
TAP	63	60	6
TAP	63	72	7
TAP	63	84	0
TAP	63	96	1
BST	63	192	7
SI_	63	192	7	96	24	3
BST	63	264	1
SI_	63	264	1	96	24	4
TAP	63	264	7
TAP	63	336	1
BST	63	336	6
SI_	63	336	6	96	48	2
TAP	64	96	3
TAP	64	192	1
TAP	64	216	1
TAP	64	264	3
TAP	64	264	4
TAP	64	312	6
TAP	64	336	6
STR	65	0	4
SF_	65	0	4	96	48	0
BRK	65	0	7
BRK	65	192	0
STR	65	192	4
SXL	65	192	4	96	96	4
STR	66	0	2
SXL	66	0	2	96	144	6
BRK	66	192	7
TAP	66	288	4
STR	66	336	4
SI_	66	336	4	96	48	1
SI_	66	336	4	96	48	7
TAP	67	48	4
BRK	67	192	0
STR	67	192	7
SCL	67	192	7	96	96	4
STR	67	288	4
SUL	67	288	4	96	96	2
STR	68	0	2
SCL	68	0	2	96	72	7
STR	68	144	3
SXR	68	144	3	96	144	0
BRK	68	240	7
BRK	68	288	7
BRK	68	336	7
TAP	69	0	5
HLD	69	48	6	144
BST	69	192	3
SI_	69	192	3	96	96	0
STR	69	288	0
SI_	69	288	0	96	96	5
STR	70	0	5
SXL	70	0	5	96	144	1
BRK	70	192	4
STR	70	288	4
SLL	70	288	4	96	96	7
SLR	70	288	4	96	96	1
TAP	70	336	3
TAP	70	336	5
BST	71	192	0
SI_	71	192	0	96	24	4
TAP	71	264	0
BST	71	264	6
SI_	71	264	6	96	24	3
BST	71	336	1
SI_	71	336	1	96	48	5
TAP	71	336	6
STR	72	96	4
SSL	72	96	4	96	144	0
BRK	73	0	1

T_REC_TAP	361
T_REC_BRK	38
T_REC_XTP	0
T_REC_HLD	76
T_REC_XHO	0
T_REC_STR	63
T_REC_BST	15
T_REC_XST	0
T_REC_TTP	0
T_REC_THO	0
T_REC_SLD	83
T_REC_ALL	636
T_NUM_TAP	424
T_NUM_BRK	53
T_NUM_HLD	76
T_NUM_SLD	83
T_NUM_ALL	636
T_JUDGE_TAP	477
T_JUDGE_HLD	158
T_JUDGE_SLD	83
T_JUDGE_ALL	718
TTM_EACHPAIRS	104
TTM_SCR_TAP	212000
TTM_SCR_BRK	137800
TTM_SCR_HLD	76000
TTM_SCR_SLD	124500
TTM_SCR_ALL	550300
TTM_SCR_S	528650
TTM_SCR_SS	545000
TTM_RAT_ACV	10097

