VERSION	0.00.00	1.03.00
FES_MODE	0
BPM_DEF	150.000	150.000	150.000	150.000
MET_DEF	4	4
RESOLUTION	384
CLK_DEF	384
COMPATIBLE_CODE	MA2

BPM	0	0	150.000
MET	0	0	4	4

HLD	1	0	5	192
TAP	1	96	4
HLD	1	192	4	192
TAP	1	288	3
STR	2	0	3
SCR	2	0	3	96	96	7
TAP	2	240	0
TAP	2	288	1
HLD	2	336	2	96
HLD	3	48	3	96
HLD	3	144	4	96
HLD	3	240	5	96
HLD	3	336	4	96
HLD	4	48	3	96
HLD	4	144	2	96
HLD	4	240	1	96
TAP	4	336	2
HLD	5	0	2	192
TAP	5	96	3
HLD	5	192	3	192
TAP	5	288	4
STR	6	0	4
SCL	6	0	4	96	96	0
TAP	6	240	7
TAP	6	288	6
HLD	6	336	5	96
HLD	7	48	4	96
HLD	7	144	3	96
HLD	7	240	2	96
HLD	7	336	3	96
STR	8	48	4
SF_	8	48	4	96	96	0
HLD	9	0	2	96
TAP	9	96	3
HLD	9	192	5	96
TAP	9	288	4
HLD	10	0	1	96
TAP	10	96	2
HLD	10	192	6	96
TAP	10	288	5
HLD	11	0	1	96
TAP	11	96	2
TAP	11	144	3
TAP	11	192	4
TAP	11	240	5
HLD	11	288	6	96
TAP	11	288	7
TAP	12	0	5
TAP	12	48	4
TAP	12	96	3
TAP	12	144	2
TAP	12	192	1
TAP	12	240	0
HLD	12	288	6	96
TAP	12	288	7
HLD	13	0	5	72
TAP	13	72	4
HLD	13	96	4	72
TAP	13	168	3
HLD	13	192	3	72
TAP	13	264	2
TAP	13	288	2
TAP	13	336	3
TAP	14	0	4
TAP	14	48	5
TAP	14	96	6
TAP	14	144	7
TAP	14	192	0
TAP	14	240	1
TAP	14	288	2
TAP	14	336	3
TAP	15	0	4
TAP	15	24	3
TAP	15	48	4
TAP	15	72	3
TAP	15	96	4
TAP	15	120	3
TAP	15	144	4
TAP	15	168	3
TAP	15	192	4
TAP	15	216	3
TAP	15	240	4
TAP	15	264	3
TAP	15	288	4
STR	16	0	4
SI_	16	0	4	96	48	0
TAP	16	48	2
TAP	16	96	2
STR	16	144	3
SI_	16	144	3	96	48	7
TAP	16	192	5
TAP	16	240	5
BRK	16	288	4
TAP	17	0	6
STR	17	96	3
SI_	17	96	3	96	48	1
STR	17	96	4
SI_	17	96	4	96	48	0
TAP	17	288	7
TAP	17	336	6
TAP	18	0	5
STR	18	96	4
SI_	18	96	4	96	48	0
STR	18	96	5
SI_	18	96	5	96	48	0
TAP	18	288	1
HLD	18	336	2	96
TAP	19	48	3
STR	19	96	3
SI_	19	96	3	96	48	7
STR	19	96	5
SI_	19	96	5	96	48	0
TAP	19	288	1
TAP	19	336	2
HLD	20	0	3	96
TAP	20	96	4
STR	20	144	4
SSL	20	144	4	96	96	0
TAP	21	0	1
STR	21	96	1
SCR	21	96	1	96	48	3
STR	21	96	7
SV_	21	96	7	96	48	4
TAP	21	288	5
TAP	21	336	3
TAP	22	0	0
STR	22	96	6
SV_	22	96	6	96	48	3
STR	22	96	7
SI_	22	96	7	96	48	4
TAP	22	288	2
TAP	22	336	3
TAP	23	0	4
TAP	23	48	5
TAP	23	96	6
TAP	23	144	7
BRK	23	192	1
BRK	23	192	6
BRK	23	264	4
BRK	23	264	6
BRK	23	336	1
BRK	23	336	3
TAP	24	192	5
TAP	24	216	5
TAP	24	264	3
TAP	24	264	4
TAP	24	312	2
TAP	24	336	2
BRK	25	0	3
BRK	25	0	4
STR	25	96	2
SLL	25	96	2	96	96	3
STR	25	96	6
SUR	25	96	6	96	96	3
TAP	26	0	5
STR	26	96	2
SI_	26	96	2	96	48	7
STR	26	96	4
SV_	26	96	4	96	48	7
TAP	26	288	6
HLD	26	336	5	96
TAP	27	48	4
STR	27	96	3
SUR	27	96	3	96	48	0
STR	27	96	4
SCR	27	96	4	96	48	7
HLD	27	288	1	48
HLD	27	336	3	48
HLD	28	0	4	96
TAP	28	96	3
STR	28	144	3
SSR	28	144	3	96	96	7
TAP	29	0	2
STR	29	96	0
SI_	29	96	0	96	48	4
STR	29	96	1
SV_	29	96	1	96	48	3
TAP	29	288	2
TAP	29	336	4
TAP	30	0	2
TAP	30	48	0
STR	30	96	6
SXR	30	96	6	96	48	4
STR	30	96	7
SUR	30	96	7	96	48	3
TAP	30	288	5
TAP	30	336	3
TAP	31	0	7
TAP	31	48	1
TAP	31	96	7
TAP	31	144	5
BRK	31	192	0
BRK	31	192	7
BRK	31	264	1
BRK	31	264	3
BRK	31	336	4
BRK	31	336	6
TAP	32	192	4
TAP	32	240	5
TAP	32	288	3
TAP	32	336	2
HLD	33	0	5	96
TAP	33	96	4
HLD	33	192	2	96
TAP	33	288	3
HLD	34	0	6	96
TAP	34	96	5
HLD	34	192	1	96
TAP	34	288	2
HLD	35	0	6	96
TAP	35	96	5
TAP	35	144	4
TAP	35	192	3
TAP	35	240	2
TAP	35	288	0
HLD	35	288	1	96
TAP	36	0	2
TAP	36	48	3
TAP	36	96	4
TAP	36	144	5
TAP	36	192	6
TAP	36	240	7
TAP	36	288	0
HLD	36	288	1	96
HLD	37	0	2	72
TAP	37	72	3
HLD	37	96	3	72
TAP	37	168	4
HLD	37	192	4	72
TAP	37	264	5
TAP	37	288	5
TAP	37	336	4
TAP	38	0	3
TAP	38	48	2
TAP	38	96	1
TAP	38	144	0
TAP	38	192	7
TAP	38	240	6
TAP	38	288	5
TAP	38	336	4
TAP	39	0	3
TAP	39	24	4
TAP	39	48	3
TAP	39	72	4
TAP	39	96	3
TAP	39	120	4
TAP	39	144	3
TAP	39	168	4
TAP	39	192	3
TAP	39	216	4
TAP	39	240	3
TAP	39	264	4
TAP	39	288	3
STR	40	0	3
SI_	40	0	3	96	48	7
TAP	40	48	5
TAP	40	96	5
STR	40	144	4
SI_	40	144	4	96	48	0
TAP	40	192	2
TAP	40	240	2
BRK	40	288	3
HLD	41	0	2	48
HLD	41	0	3	48
TAP	41	72	1
TAP	41	72	4
HLD	41	144	4	48
HLD	41	144	5	48
TAP	41	216	3
TAP	41	216	6
TAP	41	288	0
TAP	41	288	7
TAP	41	336	0
TAP	41	336	7
HLD	42	0	0	48
HLD	42	0	1	48
TAP	42	72	0
TAP	42	72	7
HLD	42	144	6	48
HLD	42	144	7	48
TAP	42	216	0
TAP	42	216	7
TAP	42	288	1
TAP	42	288	6
HLD	43	0	2	48
HLD	43	0	3	48
TAP	43	72	0
TAP	43	72	1
HLD	43	144	4	48
HLD	43	144	5	48
TAP	43	216	6
TAP	43	216	7
TAP	43	288	0
TAP	43	288	7
TAP	43	336	0
TAP	43	336	7
TAP	44	0	2
TAP	44	48	0
TAP	44	48	7
TAP	44	96	5
TAP	44	144	0
TAP	44	144	7
TAP	44	192	3
TAP	44	192	4
TAP	44	240	0
TAP	44	240	7
BRK	44	288	2
BRK	44	288	5
HLD	45	0	1	48
HLD	45	0	2	48
TAP	45	72	0
TAP	45	72	3
HLD	45	144	5	48
HLD	45	144	6	48
TAP	45	216	4
TAP	45	216	7
TAP	45	288	0
TAP	45	288	7
TAP	45	336	0
TAP	45	336	7
HLD	46	0	2	48
HLD	46	0	3	48
TAP	46	72	1
TAP	46	72	2
HLD	46	144	4	48
HLD	46	144	5	48
TAP	46	216	5
TAP	46	216	6
TAP	46	288	0
TAP	46	288	7
HLD	47	0	1	48
HLD	47	0	2	48
HLD	47	72	3	48
HLD	47	72	4	48
HLD	47	144	5	48
HLD	47	144	6	48
HLD	47	216	3	48
HLD	47	216	4	48
TAP	47	288	2
TAP	47	288	5
TAP	47	336	2
TAP	47	336	5
STR	48	0	6
SI_	48	0	6	96	48	3
TAP	48	48	0
TAP	48	96	0
STR	48	144	1
SI_	48	144	1	96	48	4
TAP	48	192	7
TAP	48	240	7
TAP	48	288	6
BRK	49	0	1
BRK	49	0	6
HLD	49	96	0	48
HLD	49	96	1	48
HLD	49	168	6	48
HLD	49	168	7	48
TAP	49	240	4
TAP	49	240	5
TAP	49	288	3
TAP	49	288	4
TAP	49	336	2
TAP	49	336	3
HLD	50	0	1	48
HLD	50	0	2	48
HLD	50	72	0	48
HLD	50	72	7	48
HLD	50	144	5	48
HLD	50	144	6	48
HLD	50	216	0	48
HLD	50	216	7	48
TAP	50	288	2
TAP	50	288	5
HLD	51	0	4	48
HLD	51	0	5	48
TAP	51	72	1
TAP	51	72	2
HLD	51	144	2	48
HLD	51	144	3	48
TAP	51	216	5
TAP	51	216	6
TAP	51	288	0
TAP	51	288	7
TAP	51	336	0
TAP	51	336	7
TAP	52	0	1
TAP	52	0	6
TAP	52	48	2
TAP	52	48	5
TAP	52	96	3
TAP	52	96	4
TAP	52	144	2
TAP	52	144	5
TAP	52	192	1
TAP	52	192	6
TAP	52	240	0
TAP	52	240	7
BRK	52	288	1
BRK	52	288	6
HLD	53	0	4	48
HLD	53	0	5	48
HLD	53	72	3	48
HLD	53	72	6	48
HLD	53	144	2	48
HLD	53	144	3	48
HLD	53	216	1	48
HLD	53	216	4	48
HLD	53	288	4	48
HLD	53	288	5	48
HLD	53	360	2	48
HLD	53	360	7	48
HLD	54	48	2	48
HLD	54	48	3	48
HLD	54	120	0	48
HLD	54	120	5	48
HLD	54	192	4	48
HLD	54	192	5	48
HLD	54	264	1	48
HLD	54	264	7	48
HLD	54	336	2	48
HLD	54	336	3	48
HLD	55	24	0	48
HLD	55	24	6	48
HLD	55	96	4	48
HLD	55	96	6	48
HLD	55	168	1	48
HLD	55	168	7	48
HLD	55	240	1	48
HLD	55	240	3	48
HLD	55	312	0	48
HLD	55	312	6	48
TAP	56	0	4
TAP	56	0	6
TAP	56	72	1
TAP	56	72	7
TAP	56	144	1
TAP	56	144	3
TAP	56	216	0
TAP	56	216	6
BRK	56	288	3
BRK	56	288	4
TAP	57	0	1
STR	57	96	2
SUR	57	96	2	96	48	7
STR	57	96	5
SUL	57	96	5	96	48	0
TAP	57	288	1
TAP	57	336	7
TAP	58	0	6
STR	58	96	3
SI_	58	96	3	96	48	0
STR	58	96	5
SUL	58	96	5	96	48	0
TAP	58	288	6
HLD	58	336	5	96
TAP	59	48	4
STR	59	96	3
SUR	59	96	3	96	48	0
STR	59	96	4
SLR	59	96	4	96	48	0
TAP	59	288	1
TAP	59	336	2
HLD	60	0	4	96
TAP	60	96	3
STR	60	144	3
SSR	60	144	3	96	96	7
TAP	61	0	6
STR	61	96	6
SV_	61	96	6	96	48	4
STR	61	96	7
SLR	61	96	7	96	48	4
TAP	61	288	5
TAP	61	336	3
TAP	62	0	7
STR	62	96	0
SLL	62	96	0	96	48	3
STR	62	96	1
SCR	62	96	1	96	48	3
TAP	62	288	5
TAP	62	336	4
TAP	63	0	3
TAP	63	48	2
TAP	63	96	1
TAP	63	144	0
BRK	63	192	1
BRK	63	192	6
BRK	63	264	1
BRK	63	264	3
BRK	63	336	4
BRK	63	336	6
TAP	64	192	2
TAP	64	216	2
TAP	64	264	3
TAP	64	264	4
TAP	64	312	5
TAP	64	336	5
BRK	65	0	3
BRK	65	0	4
STR	65	96	4
SUR	65	96	4	96	96	3
STR	65	96	6
SLR	65	96	6	96	96	3
TAP	66	0	5
STR	66	96	1
SLR	66	96	1	96	48	7
STR	66	96	4
SV_	66	96	4	96	48	7
TAP	66	288	0
HLD	66	336	2	96
TAP	67	48	3
STR	67	96	3
SI_	67	96	3	96	48	0
STR	67	96	4
SSR	67	96	4	96	48	0
HLD	67	288	6	48
HLD	67	336	4	48
HLD	68	0	3	96
TAP	68	96	4
STR	68	144	4
SSL	68	144	4	96	96	0
TAP	69	0	5
STR	69	96	6
SLR	69	96	6	96	48	3
STR	69	96	7
SI_	69	96	7	96	48	3
TAP	69	288	4
TAP	69	336	6
TAP	70	0	0
TAP	70	48	6
STR	70	96	2
SLR	70	96	2	96	48	0
STR	70	96	3
SCR	70	96	3	96	48	6
TAP	70	288	1
TAP	70	336	4
TAP	71	0	0
TAP	71	48	6
TAP	71	96	0
TAP	71	144	2
BRK	71	192	0
BRK	71	192	7
BRK	71	264	4
BRK	71	264	6
BRK	71	336	1
BRK	71	336	3
TAP	72	192	4
TAP	72	240	5
TAP	72	288	3
TAP	72	336	2
BRK	73	0	3
BRK	73	0	4

T_REC_TAP	280
T_REC_BRK	40
T_REC_XTP	0
T_REC_HLD	125
T_REC_XHO	0
T_REC_STR	53
T_REC_BST	0
T_REC_XST	0
T_REC_TTP	0
T_REC_THO	0
T_REC_SLD	53
T_REC_ALL	551
T_NUM_TAP	333
T_NUM_BRK	40
T_NUM_HLD	125
T_NUM_SLD	53
T_NUM_ALL	551
T_JUDGE_TAP	373
T_JUDGE_HLD	178
T_JUDGE_SLD	53
T_JUDGE_ALL	604
TTM_EACHPAIRS	125
TTM_SCR_TAP	166500
TTM_SCR_BRK	104000
TTM_SCR_HLD	125000
TTM_SCR_SLD	79500
TTM_SCR_ALL	475000
TTM_SCR_S	456900
TTM_SCR_SS	471000
TTM_RAT_ACV	10084

