VERSION	0.00.00	1.03.00
FES_MODE	0
BPM_DEF	150.000	150.000	150.000	150.000
MET_DEF	4	4
RESOLUTION	384
CLK_DEF	384
COMPATIBLE_CODE	MA2

BPM	0	0	150.000
MET	0	0	4	4

HLD	1	0	3	192
HLD	1	192	4	192
HLD	2	0	5	192
TAP	2	192	6
HLD	3	0	4	192
HLD	3	192	3	192
HLD	4	0	2	192
TAP	4	192	1
HLD	5	0	3	192
HLD	5	192	4	192
HLD	6	0	5	192
TAP	6	192	6
TAP	7	0	2
TAP	7	96	2
TAP	7	192	3
TAP	7	288	3
STR	8	0	4
SF_	8	0	4	96	192	0
TAP	9	0	0
TAP	9	96	0
TAP	9	192	1
TAP	9	288	1
TAP	10	0	2
TAP	10	96	2
TAP	10	192	3
TAP	10	192	4
TAP	11	0	4
TAP	11	96	4
TAP	11	192	5
TAP	11	288	5
TAP	12	0	6
TAP	12	96	6
TAP	12	192	0
TAP	12	192	7
TAP	12	288	0
TAP	12	288	7
TAP	13	0	1
TAP	13	96	0
TAP	13	96	1
TAP	13	192	6
TAP	13	288	6
TAP	13	288	7
TAP	14	0	2
TAP	14	96	2
TAP	14	96	3
TAP	14	192	5
TAP	14	288	4
TAP	14	288	5
TAP	15	0	3
TAP	15	0	4
TAP	15	96	2
TAP	15	96	5
TAP	15	192	1
TAP	15	192	6
TAP	15	288	0
TAP	15	288	7
HLD	16	0	0	192
HLD	16	0	7	192
BRK	16	288	1
BRK	16	288	6
TAP	17	0	5
TAP	17	96	5
TAP	17	192	4
TAP	17	192	6
TAP	18	0	2
TAP	18	96	2
TAP	18	192	1
TAP	18	192	3
TAP	19	0	6
TAP	19	96	6
TAP	19	192	5
TAP	19	192	7
TAP	20	0	1
TAP	20	96	1
TAP	20	192	0
TAP	20	192	2
TAP	20	288	0
TAP	20	288	2
TAP	21	0	2
TAP	21	96	2
TAP	21	192	1
TAP	21	192	3
TAP	22	0	5
TAP	22	96	5
TAP	22	192	4
TAP	22	192	6
STR	23	0	1
SXR	23	0	1	96	288	4
TAP	24	192	3
TAP	24	192	4
TAP	24	288	3
TAP	24	288	4
BRK	25	0	1
BRK	25	0	6
TAP	25	192	1
TAP	25	192	6
TAP	26	0	0
TAP	26	96	1
TAP	26	192	2
TAP	26	192	7
TAP	27	0	7
TAP	27	96	6
TAP	27	192	0
TAP	27	192	5
TAP	28	0	3
TAP	28	96	2
TAP	28	192	1
TAP	28	192	4
TAP	28	288	1
TAP	28	288	4
TAP	29	0	0
TAP	29	96	1
TAP	29	192	2
TAP	29	192	7
TAP	30	0	7
TAP	30	96	6
TAP	30	192	0
TAP	30	192	5
STR	31	0	2
SI_	31	0	2	96	192	5
STR	31	0	6
SI_	31	0	6	96	192	1
TAP	32	192	2
TAP	32	192	3
TAP	32	288	4
TAP	32	288	5
TAP	33	0	7
TAP	33	96	7
TAP	33	192	6
TAP	33	288	6
TAP	34	0	5
TAP	34	96	5
TAP	34	192	3
TAP	34	192	4
TAP	35	0	3
TAP	35	96	3
TAP	35	192	2
TAP	35	288	2
TAP	36	0	1
TAP	36	96	1
TAP	36	192	0
TAP	36	192	7
TAP	36	288	0
TAP	36	288	7
TAP	37	0	6
TAP	37	96	6
TAP	37	96	7
TAP	37	192	1
TAP	37	288	0
TAP	37	288	1
TAP	38	0	5
TAP	38	96	4
TAP	38	96	5
TAP	38	192	2
TAP	38	288	2
TAP	38	288	3
TAP	39	0	3
TAP	39	0	4
TAP	39	96	2
TAP	39	96	5
TAP	39	192	1
TAP	39	192	6
TAP	39	288	0
TAP	39	288	7
HLD	40	0	0	192
HLD	40	0	7	192
BRK	40	288	1
BRK	40	288	6
TAP	41	0	2
TAP	41	0	3
TAP	41	96	2
TAP	41	96	3
TAP	41	192	2
TAP	41	192	3
TAP	42	0	4
TAP	42	0	5
TAP	42	96	4
TAP	42	96	5
TAP	42	192	4
TAP	42	192	5
TAP	43	0	2
TAP	43	0	3
TAP	43	96	2
TAP	43	96	3
TAP	43	192	1
TAP	43	192	4
TAP	43	288	1
TAP	43	288	4
TAP	44	0	0
TAP	44	96	0
TAP	44	192	7
TAP	44	288	7
TAP	45	0	6
TAP	45	0	7
TAP	45	96	6
TAP	45	96	7
TAP	45	192	6
TAP	45	192	7
TAP	46	0	0
TAP	46	0	1
TAP	46	96	0
TAP	46	96	1
TAP	46	192	0
TAP	46	192	1
TAP	47	0	6
TAP	47	0	7
TAP	47	96	6
TAP	47	96	7
TAP	47	192	0
TAP	47	192	5
TAP	47	288	0
TAP	47	288	5
HLD	48	0	3	288
HLD	48	0	4	288
TAP	49	0	1
TAP	49	0	6
TAP	49	96	2
TAP	49	192	1
TAP	49	288	0
TAP	49	288	7
TAP	50	0	7
TAP	50	96	6
TAP	50	192	4
TAP	50	192	5
TAP	50	288	4
TAP	50	288	5
TAP	51	0	3
TAP	51	96	2
TAP	51	192	0
TAP	51	192	1
TAP	51	288	0
TAP	51	288	1
TAP	52	0	7
TAP	52	96	7
TAP	52	192	0
TAP	52	288	0
HLD	53	0	6	96
HLD	53	0	7	96
HLD	53	192	4	96
HLD	53	192	5	96
HLD	54	0	2	96
HLD	54	0	3	96
HLD	54	192	0	96
HLD	54	192	1	96
TAP	55	0	6
TAP	55	0	7
TAP	55	96	4
TAP	55	96	5
TAP	55	192	2
TAP	55	192	3
TAP	55	288	0
TAP	55	288	1
HLD	56	0	0	192
HLD	56	0	7	192
BRK	56	288	1
BRK	56	288	6
TAP	57	0	3
TAP	57	96	2
TAP	57	192	1
TAP	57	192	4
TAP	58	0	4
TAP	58	96	5
TAP	58	192	3
TAP	58	192	6
TAP	59	0	0
TAP	59	96	1
TAP	59	192	2
TAP	59	192	7
TAP	60	0	7
TAP	60	96	6
TAP	60	192	0
TAP	60	192	5
TAP	60	288	0
TAP	60	288	5
TAP	61	0	0
TAP	61	96	1
TAP	61	192	2
TAP	61	192	7
TAP	62	0	7
TAP	62	96	6
TAP	62	192	0
TAP	62	192	5
STR	63	0	6
SXL	63	0	6	96	288	3
TAP	64	192	3
TAP	64	192	4
TAP	64	288	3
TAP	64	288	4
BRK	65	0	1
BRK	65	0	6
TAP	65	192	1
TAP	65	192	6
TAP	66	0	6
TAP	66	0	7
TAP	66	96	6
TAP	66	96	7
TAP	66	192	0
TAP	66	192	5
TAP	67	0	0
TAP	67	0	1
TAP	67	96	0
TAP	67	96	1
TAP	67	192	2
TAP	67	192	7
TAP	68	0	4
TAP	68	0	5
TAP	68	96	4
TAP	68	96	5
TAP	68	192	3
TAP	68	192	6
TAP	68	288	3
TAP	68	288	6
TAP	69	0	6
TAP	69	0	7
TAP	69	96	6
TAP	69	96	7
TAP	69	192	0
TAP	69	192	5
TAP	70	0	0
TAP	70	0	1
TAP	70	96	0
TAP	70	96	1
TAP	70	192	2
TAP	70	192	7
STR	71	0	1
SI_	71	0	1	96	192	6
STR	71	0	5
SI_	71	0	5	96	192	2
TAP	72	192	4
TAP	72	192	5
TAP	72	288	2
TAP	72	288	3
BRK	73	0	0
BRK	73	0	7

T_REC_TAP	283
T_REC_BRK	12
T_REC_XTP	0
T_REC_HLD	25
T_REC_XHO	0
T_REC_STR	7
T_REC_BST	0
T_REC_XST	0
T_REC_TTP	0
T_REC_THO	0
T_REC_SLD	7
T_REC_ALL	334
T_NUM_TAP	290
T_NUM_BRK	12
T_NUM_HLD	25
T_NUM_SLD	7
T_NUM_ALL	334
T_JUDGE_TAP	302
T_JUDGE_HLD	88
T_JUDGE_SLD	7
T_JUDGE_ALL	397
TTM_EACHPAIRS	114
TTM_SCR_TAP	145000
TTM_SCR_BRK	31200
TTM_SCR_HLD	25000
TTM_SCR_SLD	10500
TTM_SCR_ALL	211700
TTM_SCR_S	204200
TTM_SCR_SS	210500
TTM_RAT_ACV	10057

