VERSION	0.00.00	1.03.00
FES_MODE	0
BPM_DEF	150.000	150.000	150.000	150.000
MET_DEF	4	4
RESOLUTION	384
CLK_DEF	384
COMPATIBLE_CODE	MA2

BPM	0	0	150.000
MET	0	0	4	4

TAP	1	0	0
TAP	1	192	0
TAP	2	0	1
TAP	2	192	1
TAP	3	0	2
TAP	3	192	2
HLD	4	0	3	192
TAP	5	0	4
TAP	5	192	4
TAP	6	0	5
TAP	6	192	5
TAP	7	0	6
TAP	7	192	6
HLD	8	0	7	192
TAP	9	0	0
TAP	9	192	0
TAP	10	0	7
TAP	10	192	7
TAP	11	0	6
TAP	11	192	6
TAP	12	0	5
TAP	12	192	4
TAP	12	192	5
TAP	13	0	4
TAP	13	192	4
TAP	14	0	3
TAP	14	192	3
TAP	15	0	2
TAP	15	192	2
TAP	16	0	1
TAP	16	192	0
TAP	16	192	1
TAP	17	0	0
TAP	17	96	0
TAP	17	192	0
TAP	18	0	1
TAP	18	96	1
TAP	18	192	1
TAP	19	0	2
TAP	19	96	2
TAP	19	192	2
TAP	20	0	3
TAP	20	96	3
TAP	20	192	3
TAP	21	0	4
TAP	21	96	4
TAP	21	192	4
TAP	22	0	5
TAP	22	96	5
TAP	22	192	5
TAP	23	0	6
TAP	23	96	6
TAP	23	192	6
TAP	24	0	7
TAP	24	96	7
TAP	24	192	7
BRK	25	0	0
TAP	25	192	0
TAP	26	0	7
TAP	26	96	7
TAP	26	192	7
TAP	27	0	6
TAP	27	96	6
TAP	27	192	6
TAP	28	0	5
TAP	28	96	4
TAP	28	192	5
TAP	29	0	4
TAP	29	96	4
TAP	29	192	4
TAP	30	0	3
TAP	30	96	3
TAP	30	192	3
TAP	31	0	2
TAP	31	96	2
TAP	31	192	2
TAP	32	0	1
TAP	32	96	0
TAP	32	192	1
TAP	33	0	7
TAP	33	192	0
TAP	33	192	7
TAP	34	0	1
TAP	34	192	0
TAP	34	192	1
TAP	35	0	2
TAP	35	192	2
TAP	35	192	3
TAP	36	0	4
TAP	36	192	3
TAP	36	192	4
TAP	37	0	5
TAP	37	192	4
TAP	37	192	5
TAP	38	0	6
TAP	38	192	6
TAP	38	192	7
TAP	39	0	7
TAP	39	192	0
TAP	39	192	7
HLD	40	0	0	192
HLD	40	0	7	192
STR	41	0	0
SI_	41	0	0	96	288	4
STR	43	0	7
SI_	43	0	7	96	288	3
STR	45	0	1
SI_	45	0	1	96	288	4
STR	47	0	6
SI_	47	0	6	96	288	3
STR	49	0	2
SI_	49	0	2	96	288	6
STR	51	0	5
SI_	51	0	5	96	288	1
TAP	53	0	0
TAP	53	192	0
TAP	54	0	7
TAP	54	192	7
HLD	55	0	0	384
HLD	55	0	7	384
TAP	57	0	1
TAP	57	96	1
TAP	57	192	0
TAP	57	192	1
TAP	58	0	2
TAP	58	96	2
TAP	58	192	2
TAP	58	192	3
TAP	59	0	5
TAP	59	96	5
TAP	59	192	4
TAP	59	192	5
TAP	60	0	6
TAP	60	96	6
TAP	60	192	7
TAP	60	288	7
TAP	61	0	0
TAP	61	96	0
TAP	61	192	0
TAP	61	192	7
TAP	62	0	6
TAP	62	96	6
TAP	62	192	6
TAP	62	192	7
TAP	63	0	5
TAP	63	96	5
TAP	63	192	4
TAP	63	192	5
TAP	64	0	2
TAP	64	96	2
TAP	64	192	2
TAP	64	192	3
BRK	65	0	1
TAP	65	192	0
TAP	65	192	1
TAP	66	0	2
TAP	66	96	2
TAP	66	192	2
TAP	66	192	3
TAP	67	0	5
TAP	67	96	5
TAP	67	192	4
TAP	67	192	5
TAP	68	0	6
TAP	68	0	7
TAP	68	96	6
TAP	68	96	7
TAP	68	192	6
TAP	68	192	7
TAP	69	0	1
TAP	69	96	1
TAP	69	192	0
TAP	69	192	1
TAP	70	0	6
TAP	70	96	6
TAP	70	192	6
TAP	70	192	7
TAP	71	0	0
TAP	71	0	1
TAP	71	96	0
TAP	71	96	1
TAP	71	192	0
TAP	71	192	1
TAP	72	0	6
TAP	72	0	7
TAP	72	96	6
TAP	72	96	7
TAP	72	192	6
TAP	72	192	7
BRK	73	0	0
BRK	73	0	7

T_REC_TAP	169
T_REC_BRK	4
T_REC_XTP	0
T_REC_HLD	6
T_REC_XHO	0
T_REC_STR	6
T_REC_BST	0
T_REC_XST	0
T_REC_TTP	0
T_REC_THO	0
T_REC_SLD	6
T_REC_ALL	191
T_NUM_TAP	175
T_NUM_BRK	4
T_NUM_HLD	6
T_NUM_SLD	6
T_NUM_ALL	191
T_JUDGE_TAP	179
T_JUDGE_HLD	32
T_JUDGE_SLD	6
T_JUDGE_ALL	217
TTM_EACHPAIRS	33
TTM_SCR_TAP	87500
TTM_SCR_BRK	10400
TTM_SCR_HLD	6000
TTM_SCR_SLD	9000
TTM_SCR_ALL	112900
TTM_SCR_S	109150
TTM_SCR_SS	112500
TTM_RAT_ACV	10035

