VERSION	0.00.00	1.03.00
FES_MODE	0
BPM_DEF	252.000	252.000	252.000	252.000
MET_DEF	4	4
RESOLUTION	384
CLK_DEF	384
COMPATIBLE_CODE	MA2

BPM	0	0	252.000
MET	0	0	4	4

TAP	1	192	3
TAP	1	240	4
TAP	2	0	2
TAP	2	96	6
TAP	2	96	7
TAP	2	192	3
TAP	2	288	6
TAP	2	288	7
TAP	3	0	4
STR	3	96	6
SCL	3	96	6	96	48	3
STR	3	96	7
SCR	3	96	7	96	48	2
TAP	4	0	5
TAP	4	96	0
TAP	4	96	1
TAP	4	192	4
TAP	4	288	0
TAP	4	288	1
TAP	5	0	3
STR	5	96	0
SCL	5	96	0	96	48	5
STR	5	96	1
SCR	5	96	1	96	48	4
TAP	6	0	2
TAP	6	96	6
TAP	6	96	7
TAP	6	192	3
TAP	6	288	6
TAP	6	288	7
TAP	7	0	4
STR	7	96	6
SCL	7	96	6	96	48	3
STR	7	96	7
SCR	7	96	7	96	48	2
TAP	8	0	5
TAP	8	96	0
TAP	8	96	1
TAP	8	192	4
TAP	8	288	0
TAP	8	288	1
TAP	9	0	3
STR	9	96	0
SCL	9	96	0	96	48	5
STR	9	96	1
SCR	9	96	1	96	48	4
TAP	10	0	4
TAP	10	0	5
TAP	10	96	3
TAP	10	96	6
TAP	10	192	5
TAP	10	288	1
TAP	10	288	4
TAP	10	336	4
TAP	11	0	2
TAP	11	96	3
TAP	11	96	6
TAP	11	192	5
TAP	11	288	1
TAP	11	288	4
TAP	12	0	2
TAP	12	96	3
TAP	12	96	6
TAP	12	192	5
TAP	12	288	1
TAP	12	288	4
TAP	12	336	4
TAP	13	0	2
TAP	13	96	3
TAP	13	96	6
TAP	13	192	5
TAP	13	288	0
TAP	13	288	7
TAP	14	0	2
TAP	14	0	3
TAP	14	96	1
TAP	14	96	4
TAP	14	192	5
TAP	14	288	3
TAP	14	288	6
TAP	14	336	6
TAP	15	0	2
TAP	15	96	1
TAP	15	96	4
TAP	15	192	5
TAP	15	288	3
TAP	15	288	6
TAP	16	0	2
TAP	16	96	1
TAP	16	96	4
TAP	16	192	5
TAP	16	288	3
TAP	16	288	6
TAP	16	336	6
TAP	17	0	2
TAP	17	96	1
TAP	17	96	4
TAP	17	192	5
TAP	17	288	0
TAP	17	288	7
TAP	18	0	3
TAP	18	0	6
TAP	18	96	2
TAP	18	96	5
TAP	18	192	1
TAP	18	192	4
TAP	18	288	3
TAP	18	288	6
TAP	18	336	6
TAP	19	0	2
TAP	19	96	1
TAP	19	96	4
TAP	19	192	3
TAP	19	192	6
STR	19	288	2
SI_	19	288	2	96	48	4
STR	19	288	7
SI_	19	288	7	96	48	5
STR	20	96	0
SI_	20	96	0	96	48	6
STR	20	96	1
SI_	20	96	1	96	48	3
STR	20	288	2
SI_	20	288	2	96	48	4
STR	20	288	7
SI_	20	288	7	96	48	5
TAP	21	96	0
TAP	21	96	1
TAP	21	192	4
TAP	21	192	5
TAP	22	0	0
TAP	22	0	1
TAP	22	96	2
TAP	22	96	7
TAP	22	192	6
TAP	22	288	0
TAP	22	288	5
TAP	22	336	5
TAP	23	0	1
TAP	23	96	2
TAP	23	96	7
TAP	23	192	6
TAP	23	288	0
TAP	23	288	5
TAP	24	0	1
TAP	24	96	2
TAP	24	96	7
TAP	24	192	6
TAP	24	288	0
TAP	24	288	5
TAP	24	336	5
TAP	25	0	2
TAP	25	96	3
TAP	25	96	4
TAP	25	192	1
TAP	25	192	6
TAP	26	0	2
TAP	26	0	3
TAP	26	96	1
TAP	26	96	4
TAP	26	192	2
TAP	26	288	3
TAP	26	288	6
TAP	26	336	3
TAP	27	0	5
TAP	27	96	1
TAP	27	96	4
TAP	27	192	2
TAP	27	288	3
TAP	27	288	6
TAP	28	0	5
TAP	28	96	1
TAP	28	96	4
TAP	28	192	2
TAP	28	288	3
TAP	28	288	6
TAP	28	336	3
TAP	29	0	5
TAP	29	96	1
TAP	29	96	4
TAP	29	192	2
TAP	29	288	0
TAP	29	288	7
TAP	30	0	4
TAP	30	0	5
TAP	30	96	3
TAP	30	96	6
TAP	30	192	2
TAP	30	288	1
TAP	30	288	4
TAP	30	336	1
TAP	31	0	5
TAP	31	96	3
TAP	31	96	6
TAP	31	192	2
TAP	31	288	1
TAP	31	288	4
TAP	32	0	5
TAP	32	96	3
TAP	32	96	6
TAP	32	192	2
TAP	32	288	1
TAP	32	288	4
TAP	32	336	1
TAP	33	0	5
TAP	33	96	3
TAP	33	96	6
TAP	33	192	2
TAP	33	288	0
TAP	33	288	7
TAP	34	0	1
TAP	34	0	4
TAP	34	96	2
TAP	34	96	5
TAP	34	192	3
TAP	34	192	6
TAP	34	288	1
TAP	34	288	4
TAP	34	336	1
TAP	35	0	5
TAP	35	96	3
TAP	35	96	6
TAP	35	192	1
TAP	35	192	4
STR	35	288	0
SI_	35	288	0	96	48	2
STR	35	288	5
SI_	35	288	5	96	48	3
STR	36	96	6
SI_	36	96	6	96	48	4
STR	36	96	7
SI_	36	96	7	96	48	1
STR	36	288	0
SI_	36	288	0	96	48	2
STR	36	288	5
SI_	36	288	5	96	48	3
TAP	37	96	6
TAP	37	96	7
TAP	37	192	2
TAP	37	192	3
TAP	38	0	6
TAP	38	0	7
TAP	38	96	0
TAP	38	96	5
TAP	38	192	1
TAP	38	288	2
TAP	38	288	7
TAP	38	336	2
TAP	39	0	6
TAP	39	96	0
TAP	39	96	5
TAP	39	192	1
TAP	39	288	2
TAP	39	288	7
TAP	40	0	6
TAP	40	96	0
TAP	40	96	5
TAP	40	192	1
TAP	40	288	2
TAP	40	288	7
TAP	40	336	2
TAP	41	0	5
STR	41	96	3
SXL	41	96	3	96	192	5
STR	41	96	4
SXR	41	96	4	96	192	2
TAP	42	96	0
TAP	42	96	7
TAP	42	192	2
TAP	42	192	3
TAP	42	288	5
HLD	42	288	6	192
TAP	43	96	7
TAP	43	192	3
TAP	43	192	4
TAP	43	288	0
HLD	43	288	1	192
TAP	44	96	2
TAP	44	192	0
TAP	44	192	3
TAP	44	288	4
TAP	44	288	7
TAP	45	0	5
TAP	45	0	6
TAP	45	96	4
TAP	45	96	7
TAP	45	192	0
TAP	45	192	3
HLD	45	288	1	192
TAP	45	288	2
HLD	46	96	0	96
HLD	46	192	4	96
HLD	46	288	5	96
HLD	47	0	7	96
HLD	47	96	6	96
HLD	47	192	2	96
HLD	47	288	3	96
HLD	48	0	4	96
HLD	48	96	5	96
HLD	48	192	6	96
STR	48	288	7
SCL	48	288	7	96	144	0
TAP	49	0	0
TAP	49	192	2
TAP	49	192	5
TAP	50	96	0
TAP	50	96	7
TAP	50	192	4
TAP	50	192	5
HLD	50	288	1	192
TAP	50	288	2
TAP	51	96	0
TAP	51	192	3
TAP	51	192	4
HLD	51	288	6	192
TAP	51	288	7
TAP	52	96	5
TAP	52	192	4
TAP	52	192	7
TAP	52	288	0
TAP	52	288	3
TAP	53	0	1
TAP	53	0	2
TAP	53	96	0
TAP	53	96	3
TAP	53	192	4
TAP	53	192	7
TAP	53	288	5
HLD	53	288	6	192
HLD	54	96	4	96
HLD	54	192	2	96
HLD	54	288	0	96
TAP	55	0	6
TAP	55	96	5
TAP	55	96	7
TAP	55	192	1
TAP	55	288	0
TAP	55	288	2
TAP	56	0	4
TAP	56	0	5
TAP	56	96	3
TAP	56	96	6
TAP	56	192	2
TAP	56	192	3
TAP	56	288	1
TAP	56	288	4
TAP	57	0	0
TAP	57	0	7
TAP	57	96	2
TAP	57	96	5
HLD	57	192	0	96
HLD	57	192	7	96
HLD	58	0	3	96
HLD	58	0	4	96
TAP	58	144	3
TAP	58	144	4
TAP	58	240	1
TAP	58	240	6
TAP	58	336	0
TAP	58	336	2
TAP	59	0	0
TAP	59	0	2
TAP	59	96	5
TAP	59	96	7
TAP	59	192	1
TAP	59	192	6
STR	59	288	0
SI_	59	288	0	96	48	4
BRK	60	0	0
STR	60	96	6
SI_	60	96	6	96	48	3
TAP	60	96	7
TAP	60	192	2
TAP	60	288	0
STR	60	288	1
SI_	60	288	1	96	48	4
TAP	61	0	5
STR	61	96	6
SI_	61	96	6	96	48	3
TAP	61	96	7
TAP	61	192	2
TAP	61	288	0
STR	61	288	1
SCR	61	288	1	96	96	4
STR	62	0	4
SCR	62	0	4	96	96	7
STR	62	96	7
SCR	62	96	7	96	96	2
STR	62	192	2
SCR	62	192	2	96	96	5
TAP	62	288	5
TAP	63	96	2
TAP	63	96	3
TAP	63	192	5
TAP	63	192	7
TAP	63	288	1
TAP	63	288	2
TAP	64	0	4
TAP	64	0	6
TAP	64	96	0
TAP	64	96	1
TAP	64	192	7
STR	64	240	7
SCL	64	240	7	96	48	4
TAP	64	288	3
TAP	64	336	7
TAP	65	96	0
TAP	65	96	1
TAP	65	192	2
STR	65	240	2
SCR	65	240	2	96	48	5
TAP	65	288	6
TAP	65	336	2
TAP	66	96	0
TAP	66	96	1
TAP	66	192	7
STR	66	240	7
SCL	66	240	7	96	48	4
TAP	66	288	3
TAP	66	336	7
TAP	67	96	0
TAP	67	96	1
TAP	67	192	6
TAP	67	192	7
STR	67	288	1
SCL	67	288	1	96	48	6
STR	68	0	6
SCR	68	0	6	96	48	1
TAP	68	192	3
TAP	68	192	4
STR	68	288	6
SI_	68	288	6	96	48	3
TAP	68	288	7
TAP	69	0	2
TAP	69	96	0
STR	69	96	1
SI_	69	96	1	96	48	4
TAP	69	192	5
STR	69	288	6
SCL	69	288	6	96	96	3
TAP	69	288	7
STR	70	0	3
SCL	70	0	3	96	96	0
STR	70	96	0
SCL	70	96	0	96	96	5
STR	70	192	5
SCL	70	192	5	96	96	2
TAP	70	288	2
TAP	71	96	4
TAP	71	96	5
TAP	71	192	0
TAP	71	192	2
TAP	71	288	5
TAP	71	288	6
TAP	72	0	1
TAP	72	0	3
TAP	72	96	6
TAP	72	96	7
TAP	72	192	0
STR	72	240	0
SCR	72	240	0	96	48	3
TAP	72	288	4
TAP	72	336	0
TAP	73	96	6
TAP	73	96	7
TAP	73	192	5
STR	73	240	5
SCL	73	240	5	96	48	2
TAP	73	288	1
TAP	73	336	5
TAP	74	96	6
TAP	74	96	7
TAP	74	192	0
STR	74	240	0
SCR	74	240	0	96	48	3
TAP	74	288	4
TAP	74	336	0
TAP	75	96	6
TAP	75	96	7
TAP	75	192	1
TAP	75	192	3
TAP	75	288	5
TAP	75	288	6
TAP	76	0	0
TAP	76	0	2
TAP	76	96	4
TAP	76	96	5
TAP	76	192	2
STR	76	240	2
SCL	76	240	2	96	48	7
TAP	76	288	6
TAP	76	336	2
TAP	77	96	4
TAP	77	96	5
TAP	77	192	6
STR	77	240	6
SCR	77	240	6	96	48	1
TAP	77	288	2
TAP	77	336	6
TAP	78	96	4
TAP	78	96	5
TAP	78	192	2
STR	78	240	2
SCL	78	240	2	96	48	7
TAP	78	288	6
TAP	78	336	2
STR	79	96	4
SI_	79	96	4	96	48	0
TAP	79	96	5
BRK	79	240	7
TAP	80	0	2
TAP	80	96	6
TAP	80	96	7
TAP	80	192	3
TAP	80	288	6
TAP	80	288	7
TAP	80	336	6
TAP	81	0	4
STR	81	96	6
SCL	81	96	6	96	48	3
STR	81	96	7
SCR	81	96	7	96	48	2
TAP	82	0	5
TAP	82	96	0
TAP	82	96	1
TAP	82	192	4
TAP	82	288	0
TAP	82	288	1
TAP	82	336	1
TAP	83	0	3
STR	83	96	0
SCL	83	96	0	96	48	5
STR	83	96	1
SCR	83	96	1	96	48	4
TAP	84	0	1
TAP	84	96	4
TAP	84	96	5
TAP	84	192	0
TAP	84	288	4
TAP	84	288	5
TAP	84	336	5
TAP	85	0	7
STR	85	96	4
SCL	85	96	4	96	48	1
STR	85	96	5
SCR	85	96	5	96	48	0
TAP	86	0	6
TAP	86	96	2
TAP	86	96	3
TAP	86	192	7
TAP	86	288	2
TAP	86	288	3
TAP	86	336	2
TAP	87	0	0
STR	87	96	2
SCL	87	96	2	96	144	5
STR	87	96	3
SUL	87	96	3	96	144	4
STR	88	0	6
SI_	88	0	6	96	48	4
STR	88	96	3
SI_	88	96	3	96	48	1
STR	88	192	6
SI_	88	192	6	96	48	4
STR	88	288	3
SI_	88	288	3	96	48	1
STR	89	0	6
SI_	89	0	6	96	48	4
STR	89	96	3
SI_	89	96	3	96	48	1
TAP	89	192	6
TAP	89	288	3
TAP	89	288	4
STR	90	0	1
SI_	90	0	1	96	48	3
STR	90	96	4
SI_	90	96	4	96	48	6
STR	90	192	1
SI_	90	192	1	96	48	3
STR	90	288	4
SI_	90	288	4	96	48	6
STR	91	0	1
SI_	91	0	1	96	48	3
STR	91	96	4
SI_	91	96	4	96	48	6
TAP	91	192	1
TAP	91	288	3
TAP	91	288	4
STR	92	0	3
SI_	92	0	3	96	48	7
TAP	92	0	6
TAP	92	192	1
STR	92	192	4
SI_	92	192	4	96	48	0
STR	93	0	3
SI_	93	0	3	96	48	7
STR	93	0	6
SI_	93	0	6	96	48	4
STR	93	192	1
SI_	93	192	1	96	48	3
STR	93	192	4
SI_	93	192	4	96	48	0
STR	94	0	6
SI_	94	0	6	96	48	3
STR	94	96	1
SI_	94	96	1	96	48	4
STR	94	192	6
SI_	94	192	6	96	48	2
STR	94	288	1
SI_	94	288	1	96	48	5
STR	95	0	7
SI_	95	0	7	96	48	2
STR	95	96	0
SI_	95	96	0	96	48	5
STR	95	192	7
SI_	95	192	7	96	48	3
BRK	95	288	0
STR	98	0	1
SI_	98	0	1	96	48	3
TAP	98	96	4
STR	98	192	1
SI_	98	192	1	96	48	3
TAP	98	288	4
STR	99	0	1
SI_	99	0	1	96	48	3
TAP	99	96	4
STR	99	192	1
SI_	99	192	1	96	48	3
TAP	99	288	4
STR	100	0	1
SI_	100	0	1	96	48	3
TAP	100	96	4
STR	100	192	1
SI_	100	192	1	96	48	3
TAP	100	288	4
STR	101	0	1
SI_	101	0	1	96	48	3
TAP	101	96	4
STR	101	192	1
SI_	101	192	1	96	48	3
TAP	101	288	4
STR	102	0	6
SI_	102	0	6	96	48	4
TAP	102	96	3
STR	102	192	6
SI_	102	192	6	96	48	4
TAP	102	288	3
STR	103	0	6
SI_	103	0	6	96	48	4
TAP	103	96	3
STR	103	192	6
SI_	103	192	6	96	48	4
TAP	103	288	3
STR	104	0	6
SI_	104	0	6	96	48	4
TAP	104	96	3
STR	104	192	6
SI_	104	192	6	96	48	4
TAP	104	288	3
STR	105	0	6
SI_	105	0	6	96	48	4
TAP	105	96	3
STR	105	192	6
SI_	105	192	6	96	48	4
TAP	105	288	3
STR	106	0	1
SI_	106	0	1	96	48	3
TAP	106	96	4
STR	106	192	0
SI_	106	192	0	96	48	4
TAP	106	288	5
STR	107	0	1
SI_	107	0	1	96	48	3
TAP	107	96	4
STR	107	192	0
SI_	107	192	0	96	48	4
TAP	107	288	5
STR	108	0	1
SI_	108	0	1	96	48	3
TAP	108	96	4
STR	108	192	0
SI_	108	192	0	96	48	4
TAP	108	288	5
STR	109	0	1
SI_	109	0	1	96	48	3
TAP	109	96	4
STR	109	192	0
SI_	109	192	0	96	48	4
TAP	109	288	5
STR	110	0	7
SI_	110	0	7	96	48	3
TAP	110	96	2
STR	110	192	6
SI_	110	192	6	96	48	4
TAP	110	288	3
STR	111	0	7
SI_	111	0	7	96	48	3
TAP	111	96	2
STR	111	192	6
SI_	111	192	6	96	48	4
TAP	111	288	3
TAP	112	0	2
TAP	112	0	5
BRK	113	192	1
BRK	113	192	6
STR	113	288	3
SI_	113	288	3	96	48	7
STR	113	288	4
SI_	113	288	4	96	48	0
BRK	114	0	3
BRK	114	0	4
TAP	114	96	1
STR	114	96	6
SI_	114	96	6	96	48	3
TAP	114	192	2
STR	114	288	1
SI_	114	288	1	96	48	4
TAP	114	288	4
TAP	115	0	0
TAP	115	96	3
STR	115	96	6
SI_	115	96	6	96	48	3
TAP	115	192	7
STR	115	288	1
SCL	115	288	1	96	96	6
TAP	115	288	4
STR	116	0	6
SI_	116	0	6	96	96	2
STR	116	96	2
SCR	116	96	2	96	96	5
STR	116	192	5
SI_	116	192	5	96	96	1
TAP	116	288	1
TAP	117	96	6
TAP	117	96	7
TAP	117	192	1
TAP	117	192	3
TAP	117	288	5
TAP	117	288	6
TAP	118	0	0
TAP	118	0	2
TAP	118	96	4
TAP	118	96	5
TAP	118	192	2
STR	118	240	2
SCR	118	240	2	96	48	5
TAP	118	288	6
TAP	118	336	2
BRK	118	336	6
TAP	119	96	0
TAP	119	96	7
TAP	119	192	6
STR	119	240	6
SI_	119	240	6	96	48	2
TAP	119	288	1
TAP	119	336	1
TAP	119	336	6
TAP	120	96	0
TAP	120	96	7
TAP	120	192	1
STR	120	240	1
SCL	120	240	1	96	48	6
TAP	120	288	5
TAP	120	336	1
BRK	120	336	5
TAP	121	96	4
TAP	121	96	5
TAP	121	192	2
TAP	121	192	3
STR	121	288	6
SCR	121	288	6	96	48	1
STR	122	0	1
SCL	122	0	1	96	48	6
TAP	122	192	3
TAP	122	192	4
TAP	122	288	0
STR	122	288	1
SI_	122	288	1	96	48	4
TAP	123	0	5
STR	123	96	6
SI_	123	96	6	96	48	3
TAP	123	96	7
TAP	123	192	2
TAP	123	288	0
STR	123	288	1
SUR	123	288	1	96	48	5
TAP	124	0	6
STR	124	96	6
SUL	124	96	6	96	48	2
TAP	124	96	7
TAP	124	192	1
STR	124	288	0
SCR	124	288	0	96	48	3
TAP	124	288	7
TAP	125	0	5
TAP	125	96	0
STR	125	96	7
SCL	125	96	7	96	48	4
TAP	125	192	2
TAP	125	288	0
TAP	125	288	7
STR	126	0	1
SCL	126	0	1	96	192	6
TAP	126	0	2
TAP	126	96	3
TAP	126	192	4
TAP	126	288	5
STR	127	0	5
SCL	127	0	5	96	192	2
TAP	127	0	6
TAP	127	96	7
TAP	127	192	0
TAP	127	288	1
STR	128	0	1
SCL	128	0	1	96	192	6
TAP	128	0	2
TAP	128	96	3
TAP	128	192	4
TAP	128	288	5
TAP	129	0	4
TAP	129	0	5
TAP	129	96	2
TAP	129	96	3
TAP	129	192	5
TAP	129	192	7
TAP	129	288	1
TAP	129	288	2
TAP	130	0	4
TAP	130	0	6
TAP	130	96	0
TAP	130	96	1
TAP	130	192	7
STR	130	240	7
SCL	130	240	7	96	48	4
TAP	130	288	3
TAP	130	336	3
TAP	130	336	7
TAP	131	96	0
TAP	131	96	1
TAP	131	192	2
STR	131	240	2
SCR	131	240	2	96	48	5
TAP	131	288	6
TAP	131	336	2
TAP	131	336	6
TAP	132	96	0
TAP	132	96	1
TAP	132	192	7
STR	132	240	7
SCL	132	240	7	96	48	4
TAP	132	288	3
TAP	132	336	3
TAP	132	336	7
TAP	133	96	0
TAP	133	96	1
TAP	133	192	4
TAP	133	192	6
TAP	133	288	1
TAP	133	288	2
TAP	134	0	5
TAP	134	0	7
TAP	134	96	2
TAP	134	96	3
TAP	134	192	5
STR	134	240	5
SCR	134	240	5	96	48	0
TAP	134	288	1
TAP	134	336	1
TAP	134	336	5
TAP	135	96	2
TAP	135	96	3
TAP	135	192	1
STR	135	240	1
SCL	135	240	1	96	48	6
TAP	135	288	5
TAP	135	336	1
TAP	135	336	5
TAP	136	96	2
TAP	136	96	3
TAP	136	192	5
STR	136	240	5
SCR	136	240	5	96	48	0
TAP	136	288	1
TAP	136	336	1
TAP	136	336	5
TAP	137	96	2
TAP	137	96	3
TAP	137	192	5
TAP	137	192	6
TAP	137	288	0
TAP	137	288	1
TAP	137	336	2
HLD	138	0	2	96
TAP	138	0	3
TAP	138	96	7
TAP	138	192	0
TAP	138	192	1
HLD	138	240	1	96
TAP	138	336	5
TAP	139	0	4
HLD	139	0	5	96
TAP	139	96	0
TAP	139	192	6
TAP	139	192	7
TAP	139	336	5
TAP	140	0	4
HLD	140	0	5	96
TAP	140	96	0
TAP	140	192	6
TAP	140	192	7
HLD	140	240	6	96
TAP	140	336	2
HLD	141	0	2	96
TAP	141	0	3
TAP	141	96	7
TAP	141	192	0
TAP	141	192	1
TAP	141	288	5
TAP	141	288	6
TAP	142	0	2
HLD	142	0	3	96
TAP	142	96	4
TAP	142	192	3
TAP	142	192	5
TAP	142	240	3
HLD	142	240	5	96
TAP	142	336	1
HLD	143	0	1	96
TAP	143	0	5
TAP	143	96	6
TAP	143	192	0
BRK	143	192	7
BRK	143	240	0
TAP	143	240	7

T_REC_TAP	613
T_REC_BRK	11
T_REC_XTP	0
T_REC_HLD	32
T_REC_XHO	0
T_REC_STR	139
T_REC_BST	0
T_REC_XST	0
T_REC_TTP	0
T_REC_THO	0
T_REC_SLD	139
T_REC_ALL	934
T_NUM_TAP	752
T_NUM_BRK	11
T_NUM_HLD	32
T_NUM_SLD	139
T_NUM_ALL	934
T_JUDGE_TAP	763
T_JUDGE_HLD	38
T_JUDGE_SLD	139
T_JUDGE_ALL	940
TTM_EACHPAIRS	246
TTM_SCR_TAP	376000
TTM_SCR_BRK	28600
TTM_SCR_HLD	32000
TTM_SCR_SLD	208500
TTM_SCR_ALL	645100
TTM_SCR_S	624700
TTM_SCR_SS	644000
TTM_RAT_ACV	10017

