VERSION	0.00.00	1.03.00
FES_MODE	0
BPM_DEF	252.000	252.000	252.000	252.000
MET_DEF	4	4
RESOLUTION	384
CLK_DEF	384
COMPATIBLE_CODE	MA2

BPM	0	0	252.000
MET	0	0	4	4

TAP	2	0	2
TAP	2	96	2
TAP	2	192	3
TAP	2	288	3
TAP	3	0	2
TAP	3	96	3
TAP	3	192	1
TAP	3	192	4
TAP	4	0	5
TAP	4	96	5
TAP	4	192	4
TAP	4	288	4
TAP	5	0	5
TAP	5	96	4
TAP	5	192	3
TAP	5	192	6
TAP	6	0	2
TAP	6	96	2
TAP	6	192	3
TAP	6	288	3
TAP	7	0	2
TAP	7	96	3
TAP	7	192	1
TAP	7	192	4
TAP	8	0	5
TAP	8	96	5
TAP	8	192	4
TAP	8	288	4
TAP	9	0	5
TAP	9	96	4
TAP	9	192	3
TAP	9	192	6
TAP	10	0	2
TAP	10	96	3
TAP	10	192	2
TAP	10	288	2
TAP	11	0	5
TAP	11	96	4
TAP	11	192	5
TAP	11	288	5
TAP	12	0	1
TAP	12	96	1
TAP	12	192	3
TAP	12	288	3
TAP	13	0	1
TAP	13	0	4
TAP	13	96	2
TAP	13	96	5
TAP	13	192	3
TAP	13	192	6
TAP	14	0	5
TAP	14	96	4
TAP	14	192	5
TAP	14	288	5
TAP	15	0	2
TAP	15	96	3
TAP	15	192	2
TAP	15	288	2
TAP	16	0	6
TAP	16	96	6
TAP	16	192	4
TAP	16	288	4
TAP	17	0	3
TAP	17	0	6
TAP	17	96	2
TAP	17	96	5
TAP	17	192	1
TAP	17	192	4
HLD	18	0	2	192
TAP	18	96	4
TAP	18	192	3
HLD	19	0	5	192
TAP	19	96	3
TAP	19	192	4
HLD	20	0	2	288
TAP	20	96	4
TAP	20	192	3
STR	20	288	4
SSL	20	288	4	96	288	0
TAP	22	0	2
TAP	22	96	3
TAP	22	192	2
TAP	22	288	2
TAP	22	288	3
TAP	23	0	5
TAP	23	96	4
TAP	23	192	5
TAP	23	288	4
TAP	23	288	5
TAP	24	0	1
TAP	24	96	1
TAP	24	192	7
TAP	24	288	7
TAP	25	0	0
TAP	25	96	7
TAP	25	192	1
TAP	25	192	6
TAP	26	0	2
TAP	26	96	3
TAP	26	192	1
TAP	26	288	1
TAP	27	0	5
TAP	27	96	4
TAP	27	192	6
TAP	27	288	6
TAP	28	0	1
TAP	28	96	1
TAP	28	192	3
TAP	28	288	3
TAP	29	0	0
TAP	29	0	4
TAP	29	96	1
TAP	29	96	5
TAP	29	192	2
TAP	29	192	6
TAP	30	0	5
TAP	30	96	4
TAP	30	192	6
TAP	30	288	6
TAP	31	0	2
TAP	31	96	3
TAP	31	192	1
TAP	31	288	1
TAP	32	0	6
TAP	32	96	6
TAP	32	192	4
TAP	32	288	4
TAP	33	0	3
TAP	33	0	7
TAP	33	96	2
TAP	33	96	6
TAP	33	192	1
TAP	33	192	5
HLD	34	0	6	192
TAP	34	96	4
TAP	34	192	5
HLD	35	0	1	192
TAP	35	96	3
TAP	35	192	2
HLD	36	0	6	288
TAP	36	96	4
TAP	36	192	5
STR	36	288	4
SSR	36	288	4	96	288	0
TAP	38	0	5
TAP	38	96	4
TAP	38	192	6
TAP	38	288	4
TAP	38	288	6
TAP	39	0	2
TAP	39	96	3
TAP	39	192	1
TAP	39	288	1
TAP	39	288	3
TAP	40	0	5
TAP	40	96	5
TAP	40	192	3
TAP	40	288	3
TAP	41	0	4
TAP	41	96	3
BRK	41	192	2
BRK	41	192	5
TAP	42	96	5
TAP	42	192	4
HLD	42	288	5	192
TAP	43	96	6
TAP	43	192	5
HLD	43	288	6	192
TAP	44	96	7
TAP	44	192	6
HLD	44	288	7	192
STR	45	96	0
SCR	45	96	0	96	192	3
HLD	46	96	4	192
TAP	46	192	3
TAP	46	288	2
HLD	47	96	3	192
TAP	47	192	4
TAP	47	288	5
HLD	48	96	4	192
TAP	48	192	3
STR	48	288	2
SI_	48	288	2	96	192	5
SCR	48	288	2	96	192	5
TAP	50	96	2
TAP	50	192	3
HLD	50	288	2	192
TAP	51	96	1
TAP	51	192	2
HLD	51	288	1	192
TAP	52	96	0
TAP	52	192	1
HLD	52	288	0	192
STR	53	96	7
SCL	53	96	7	96	192	4
HLD	54	96	2	192
TAP	54	192	3
TAP	54	288	4
HLD	55	96	5	192
TAP	55	192	4
TAP	55	288	3
HLD	56	96	2	192
TAP	56	192	3
STR	56	288	4
SI_	56	288	4	96	192	1
SI_	56	288	4	96	192	7
HLD	58	0	3	96
HLD	58	0	4	96
TAP	58	144	3
TAP	58	144	4
TAP	58	240	1
TAP	58	240	6
TAP	58	336	0
TAP	59	0	7
TAP	59	96	0
TAP	59	96	7
TAP	59	192	1
TAP	59	192	6
BRK	60	0	6
BRK	60	0	7
TAP	60	96	5
TAP	60	192	0
TAP	60	192	1
TAP	60	288	2
STR	61	0	1
SI_	61	0	1	96	96	4
STR	61	0	5
SI_	61	0	5	96	96	0
HLD	61	288	1	96
HLD	62	0	3	96
HLD	62	96	4	96
HLD	62	192	6	96
TAP	62	288	7
TAP	63	96	6
TAP	63	192	5
TAP	63	288	4
TAP	64	0	2
TAP	64	0	3
TAP	64	96	5
TAP	64	192	2
TAP	64	240	2
TAP	64	336	0
TAP	64	336	5
TAP	65	96	2
TAP	65	192	5
TAP	65	240	5
TAP	65	336	2
TAP	65	336	7
TAP	66	96	5
TAP	66	192	0
TAP	66	240	0
STR	66	336	6
SI_	66	336	6	96	96	3
STR	66	336	7
SI_	66	336	7	96	96	2
TAP	68	0	5
TAP	68	96	2
STR	68	192	5
SCR	68	192	5	96	144	0
STR	68	288	2
SCL	68	288	2	96	144	7
HLD	69	288	6	96
HLD	70	0	4	96
HLD	70	96	3	96
HLD	70	192	1	96
TAP	70	288	0
TAP	71	96	1
TAP	71	192	2
TAP	71	288	3
TAP	72	0	4
TAP	72	0	5
TAP	72	96	2
TAP	72	192	4
TAP	72	240	4
TAP	72	336	2
TAP	72	336	7
TAP	73	96	5
TAP	73	192	3
TAP	73	240	3
TAP	73	336	0
TAP	73	336	5
TAP	74	96	2
TAP	74	192	7
TAP	74	240	7
STR	74	336	0
SI_	74	336	0	96	96	5
STR	74	336	1
SI_	74	336	1	96	96	4
TAP	75	288	2
TAP	75	288	3
TAP	76	0	1
TAP	76	0	4
TAP	76	96	0
TAP	76	96	5
TAP	76	192	6
TAP	76	240	6
TAP	76	336	0
TAP	76	336	5
TAP	77	96	3
TAP	77	96	6
TAP	77	192	1
TAP	77	240	1
TAP	77	336	2
TAP	77	336	7
TAP	78	96	3
TAP	78	96	4
TAP	78	192	1
TAP	78	192	6
TAP	78	240	1
TAP	78	240	6
STR	78	336	0
SI_	78	336	0	96	96	4
STR	78	336	7
SI_	78	336	7	96	96	3
TAP	79	240	1
TAP	79	240	6
STR	80	0	7
SCR	80	0	7	96	192	2
STR	81	0	3
SCR	81	0	3	96	192	6
STR	82	0	7
SCR	82	0	7	96	192	2
STR	83	0	3
SCR	83	0	3	96	192	6
STR	84	0	7
SUL	84	0	7	96	192	2
STR	85	0	1
SUL	85	0	1	96	192	4
STR	86	0	3
SUL	86	0	3	96	192	6
STR	87	0	5
SUL	87	0	5	96	192	0
TAP	88	0	1
TAP	88	96	0
TAP	88	192	1
TAP	88	288	0
TAP	89	0	2
TAP	89	96	3
TAP	89	192	2
TAP	89	192	3
TAP	90	0	5
TAP	90	96	4
TAP	90	192	5
TAP	90	288	4
TAP	91	0	6
TAP	91	96	7
TAP	91	192	6
TAP	91	192	7
HLD	92	0	6	96
HLD	92	0	7	96
HLD	92	192	2	96
HLD	92	192	3	96
HLD	93	0	1	96
HLD	93	0	4	96
HLD	93	192	3	96
HLD	93	192	6	96
HLD	94	0	2	96
HLD	94	0	5	96
HLD	94	192	0	96
HLD	94	192	7	96
TAP	95	0	1
TAP	95	0	6
TAP	95	96	2
TAP	95	96	3
TAP	95	192	3
TAP	95	192	4
TAP	95	288	4
TAP	95	288	5
TAP	96	0	3
TAP	96	0	4
HLD	98	0	4	384
TAP	98	96	3
TAP	98	288	3
HLD	99	0	3	384
TAP	99	96	4
TAP	99	288	4
HLD	100	0	4	384
TAP	100	96	3
TAP	100	288	3
HLD	101	0	3	384
TAP	101	96	4
TAP	101	288	4
HLD	102	0	5	384
TAP	102	96	3
TAP	102	288	3
HLD	103	0	2	384
TAP	103	96	4
TAP	103	288	4
HLD	104	0	5	384
TAP	104	96	3
TAP	104	288	3
HLD	105	0	2	384
TAP	105	96	4
TAP	105	288	4
HLD	106	0	5	384
TAP	106	96	4
TAP	106	192	3
HLD	107	0	2	384
TAP	107	96	3
TAP	107	192	4
HLD	108	0	5	384
TAP	108	96	3
TAP	108	192	2
HLD	109	0	2	384
TAP	109	96	4
TAP	109	192	5
HLD	110	0	6	384
TAP	110	96	3
TAP	110	192	2
HLD	111	0	1	288
TAP	111	96	4
TAP	111	192	5
TAP	111	288	6
BRK	112	0	0
BRK	112	0	7
TAP	113	192	1
TAP	113	192	6
BRK	114	0	5
BRK	114	0	7
TAP	114	96	6
TAP	114	192	0
TAP	114	192	2
TAP	114	288	1
STR	115	0	2
SI_	115	0	2	96	96	7
STR	115	0	6
SI_	115	0	6	96	96	3
HLD	115	288	0	96
HLD	116	0	2	96
HLD	116	96	4	96
HLD	116	192	6	96
TAP	116	288	7
TAP	117	96	6
TAP	117	192	5
TAP	117	288	4
TAP	118	0	3
TAP	118	0	5
TAP	118	96	6
TAP	118	192	3
TAP	118	240	3
TAP	118	336	0
TAP	118	336	5
TAP	119	96	1
TAP	119	192	4
TAP	119	240	4
TAP	119	336	2
TAP	119	336	7
TAP	120	96	5
TAP	120	192	0
TAP	120	240	0
STR	120	336	6
SI_	120	336	6	96	96	2
STR	120	336	7
SI_	120	336	7	96	96	3
TAP	122	0	2
TAP	122	96	5
STR	122	192	2
SCL	122	192	2	96	144	7
STR	122	288	5
SCR	122	288	5	96	144	0
TAP	123	288	7
HLD	124	0	7	96
HLD	124	192	0	96
HLD	124	192	6	96
HLD	125	0	1	96
HLD	125	0	5	96
HLD	125	192	2	96
HLD	125	192	4	96
TAP	126	0	0
TAP	126	96	1
TAP	126	192	2
TAP	126	288	3
TAP	127	0	1
TAP	127	96	2
TAP	127	192	3
TAP	127	288	4
TAP	128	0	2
TAP	128	96	3
TAP	128	192	4
TAP	128	288	5
TAP	129	0	3
TAP	129	96	4
TAP	129	192	5
TAP	129	288	6
TAP	130	0	3
TAP	130	0	4
TAP	130	96	5
TAP	130	192	2
TAP	130	240	2
TAP	130	336	0
TAP	130	336	4
TAP	131	96	2
TAP	131	192	5
TAP	131	240	5
TAP	131	336	3
TAP	131	336	7
TAP	132	96	2
TAP	132	192	7
TAP	132	240	7
STR	132	336	0
SI_	132	336	0	96	96	4
STR	132	336	1
SI_	132	336	1	96	96	5
TAP	133	288	4
TAP	133	288	5
TAP	134	0	3
TAP	134	0	6
TAP	134	96	2
TAP	134	96	7
TAP	134	192	0
TAP	134	240	0
TAP	134	336	2
TAP	134	336	7
TAP	135	96	1
TAP	135	96	4
TAP	135	192	7
TAP	135	240	7
TAP	135	336	0
TAP	135	336	5
TAP	136	96	3
TAP	136	96	4
TAP	136	192	1
TAP	136	192	6
TAP	136	240	1
TAP	136	240	6
STR	136	336	0
SF_	136	336	0	96	144	4
TAP	136	336	7
HLD	138	0	0	96
HLD	138	0	1	96
HLD	138	192	6	96
HLD	138	192	7	96
HLD	139	0	0	96
HLD	139	0	2	96
HLD	139	192	5	96
HLD	139	192	7	96
HLD	140	0	1	96
HLD	140	0	3	96
HLD	140	192	4	96
HLD	140	192	6	96
HLD	141	0	2	96
HLD	141	0	3	96
HLD	141	192	4	96
HLD	141	192	5	96
STR	142	0	6
SI_	142	0	6	96	96	3
STR	142	192	1
SI_	142	192	1	96	96	4
STR	143	0	7
SI_	143	0	7	96	96	3
TAP	143	192	0
TAP	143	240	0

T_REC_TAP	389
T_REC_BRK	8
T_REC_XTP	0
T_REC_HLD	81
T_REC_XHO	0
T_REC_STR	36
T_REC_BST	0
T_REC_XST	0
T_REC_TTP	0
T_REC_THO	0
T_REC_SLD	38
T_REC_ALL	552
T_NUM_TAP	425
T_NUM_BRK	8
T_NUM_HLD	81
T_NUM_SLD	38
T_NUM_ALL	552
T_JUDGE_TAP	433
T_JUDGE_HLD	142
T_JUDGE_SLD	38
T_JUDGE_ALL	613
TTM_EACHPAIRS	96
TTM_SCR_TAP	212500
TTM_SCR_BRK	20800
TTM_SCR_HLD	81000
TTM_SCR_SLD	57000
TTM_SCR_ALL	371300
TTM_SCR_S	359400
TTM_SCR_SS	370500
TTM_RAT_ACV	10021

