VERSION	0.00.00	1.03.00
FES_MODE	0
BPM_DEF	252.000	252.000	252.000	252.000
MET_DEF	4	4
RESOLUTION	384
CLK_DEF	384
COMPATIBLE_CODE	MA2

BPM	0	0	252.000
MET	0	0	4	4

TAP	2	0	5
TAP	2	192	5
TAP	3	0	4
TAP	3	0	5
TAP	4	0	2
TAP	4	192	2
TAP	5	0	2
TAP	5	0	3
TAP	6	0	5
TAP	6	192	5
TAP	7	0	4
TAP	7	0	5
TAP	8	0	3
TAP	8	192	4
TAP	9	0	3
TAP	9	0	4
TAP	10	0	2
TAP	10	192	2
TAP	10	192	3
TAP	11	0	5
TAP	11	192	4
TAP	11	192	5
TAP	12	0	3
TAP	12	192	3
TAP	12	192	4
TAP	13	0	2
TAP	13	0	5
TAP	14	0	5
TAP	14	192	4
TAP	14	192	5
TAP	15	0	2
TAP	15	192	2
TAP	15	192	3
TAP	16	0	4
TAP	16	192	3
TAP	16	192	4
TAP	17	0	2
TAP	17	0	5
TAP	18	0	1
TAP	18	192	1
TAP	19	0	0
TAP	19	0	1
TAP	20	0	6
TAP	20	192	6
TAP	21	0	6
TAP	21	0	7
TAP	22	0	2
TAP	22	192	2
TAP	22	192	3
TAP	23	0	5
TAP	23	192	4
TAP	23	192	5
TAP	24	0	3
TAP	24	0	4
TAP	24	192	3
TAP	24	192	4
TAP	25	0	2
TAP	25	0	5
TAP	26	0	6
TAP	26	192	6
TAP	26	192	7
TAP	27	0	1
TAP	27	192	0
TAP	27	192	1
TAP	28	0	7
TAP	28	192	0
TAP	28	192	7
TAP	29	0	1
TAP	29	0	6
TAP	30	0	1
TAP	30	192	0
TAP	30	192	1
TAP	31	0	6
TAP	31	192	6
TAP	31	192	7
TAP	32	0	0
TAP	32	192	0
TAP	32	192	7
TAP	33	0	1
TAP	33	0	6
TAP	34	0	5
TAP	34	192	5
TAP	35	0	4
TAP	35	0	5
TAP	36	0	2
TAP	36	192	2
TAP	37	0	2
TAP	37	0	3
TAP	38	0	6
TAP	38	192	6
TAP	38	192	7
TAP	39	0	1
TAP	39	192	0
TAP	39	192	1
TAP	40	0	0
TAP	40	0	7
TAP	40	192	0
TAP	40	192	7
TAP	41	0	1
TAP	41	0	6
STR	42	0	0
SI_	42	0	0	96	480	4
STR	44	0	7
SI_	44	0	7	96	480	3
STR	46	0	1
SI_	46	0	1	96	480	4
TAP	48	0	5
TAP	48	192	5
TAP	49	0	4
TAP	49	0	6
STR	50	0	7
SI_	50	0	7	96	480	3
STR	52	0	0
SI_	52	0	0	96	480	4
STR	54	0	6
SI_	54	0	6	96	480	3
TAP	56	0	2
TAP	56	192	2
TAP	57	0	1
TAP	57	0	3
TAP	58	0	4
TAP	58	192	3
TAP	59	0	4
BRK	59	192	1
BRK	59	192	6
TAP	60	0	2
TAP	60	96	2
TAP	60	192	2
TAP	60	192	3
TAP	61	0	5
TAP	61	96	5
TAP	61	192	4
TAP	61	192	5
TAP	62	0	2
TAP	62	0	3
TAP	62	192	4
TAP	62	192	5
TAP	63	0	3
TAP	63	0	6
TAP	64	0	5
TAP	64	96	5
TAP	64	192	4
TAP	64	192	5
TAP	65	0	2
TAP	65	96	2
TAP	65	192	2
TAP	65	192	3
TAP	66	0	4
TAP	66	0	5
TAP	66	192	2
TAP	66	192	3
TAP	67	0	1
TAP	67	0	4
TAP	68	0	1
TAP	68	96	1
TAP	68	192	0
TAP	68	192	1
TAP	69	0	6
TAP	69	96	6
TAP	69	192	6
TAP	69	192	7
TAP	70	0	0
TAP	70	0	1
TAP	70	192	6
TAP	70	192	7
TAP	71	0	0
TAP	71	0	5
TAP	72	0	6
TAP	72	96	6
TAP	72	192	6
TAP	72	192	7
TAP	73	0	1
TAP	73	96	1
TAP	73	192	0
TAP	73	192	1
TAP	74	0	6
TAP	74	0	7
TAP	74	192	0
TAP	74	192	1
TAP	75	0	2
TAP	75	0	7
TAP	76	0	2
TAP	76	0	3
TAP	76	96	2
TAP	76	96	3
TAP	76	192	2
TAP	76	192	3
TAP	77	0	4
TAP	77	0	5
TAP	77	96	4
TAP	77	96	5
TAP	77	192	4
TAP	77	192	5
TAP	78	0	3
TAP	78	0	4
TAP	78	192	2
TAP	78	192	5
TAP	79	0	1
TAP	79	0	6
TAP	80	0	6
TAP	80	192	6
TAP	81	0	6
TAP	81	0	7
TAP	82	0	1
TAP	82	192	1
TAP	83	0	0
TAP	83	0	1
TAP	84	0	6
TAP	84	192	6
TAP	85	0	6
TAP	85	0	7
TAP	86	0	0
TAP	86	192	7
TAP	87	0	1
TAP	87	0	6
TAP	88	0	2
TAP	88	192	2
TAP	89	0	1
TAP	89	0	3
TAP	90	0	5
TAP	90	192	5
TAP	91	0	4
TAP	91	0	6
TAP	92	0	7
TAP	92	192	7
TAP	93	0	0
TAP	93	192	0
TAP	94	0	0
TAP	94	0	7
TAP	94	192	1
TAP	94	192	6
TAP	95	0	2
TAP	95	0	5
TAP	95	192	3
TAP	95	192	4
HLD	98	0	1	384
HLD	99	0	2	384
HLD	100	0	3	384
TAP	101	0	4
HLD	102	0	5	384
HLD	103	0	6	384
HLD	104	0	7	384
TAP	105	0	0
HLD	106	0	5	384
HLD	107	0	4	384
HLD	108	0	3	384
HLD	109	0	2	384
HLD	110	0	1	384
HLD	111	0	0	384
TAP	112	0	7
TAP	114	0	4
TAP	114	96	4
TAP	114	192	3
TAP	114	192	5
TAP	115	0	2
TAP	115	96	2
TAP	115	192	1
TAP	115	192	3
TAP	116	0	4
TAP	116	0	5
TAP	116	192	2
TAP	116	192	3
TAP	117	0	4
TAP	117	0	6
TAP	118	0	3
TAP	118	96	3
TAP	118	192	2
TAP	118	192	4
TAP	119	0	5
TAP	119	96	5
TAP	119	192	4
TAP	119	192	6
TAP	120	0	2
TAP	120	0	3
TAP	120	192	4
TAP	120	192	5
TAP	121	0	1
TAP	121	0	3
TAP	122	0	6
TAP	122	96	6
TAP	122	192	5
TAP	122	192	7
TAP	123	0	1
TAP	123	96	1
TAP	123	192	0
TAP	123	192	2
TAP	124	0	6
TAP	124	0	7
TAP	124	192	0
TAP	124	192	1
TAP	125	0	6
TAP	125	0	7
TAP	125	192	0
TAP	125	192	2
TAP	126	0	7
TAP	126	192	6
TAP	127	0	5
TAP	127	192	4
TAP	128	0	2
TAP	128	0	3
TAP	128	192	2
TAP	128	192	3
TAP	129	0	1
TAP	129	0	4
TAP	130	0	1
TAP	130	96	1
TAP	130	192	0
TAP	130	192	1
TAP	131	0	6
TAP	131	96	6
TAP	131	192	6
TAP	131	192	7
TAP	132	0	0
TAP	132	0	1
TAP	132	192	2
TAP	132	192	7
TAP	133	0	3
TAP	133	0	6
TAP	134	0	5
TAP	134	96	5
TAP	134	192	4
TAP	134	192	5
TAP	135	0	2
TAP	135	96	2
TAP	135	192	2
TAP	135	192	3
TAP	136	0	4
TAP	136	0	5
TAP	136	192	3
TAP	136	192	6
TAP	137	0	2
TAP	137	0	7
TAP	138	0	2
TAP	138	0	3
TAP	138	192	1
TAP	138	192	4
TAP	139	0	0
TAP	139	0	5
TAP	140	0	4
TAP	140	0	5
TAP	140	192	3
TAP	140	192	6
TAP	141	0	2
TAP	141	0	7
TAP	142	0	3
TAP	142	0	4
TAP	142	192	2
TAP	142	192	5
TAP	143	0	1
TAP	143	0	6
BRK	143	192	0
BRK	143	192	7

T_REC_TAP	324
T_REC_BRK	4
T_REC_XTP	0
T_REC_HLD	12
T_REC_XHO	0
T_REC_STR	6
T_REC_BST	0
T_REC_XST	0
T_REC_TTP	0
T_REC_THO	0
T_REC_SLD	6
T_REC_ALL	352
T_NUM_TAP	330
T_NUM_BRK	4
T_NUM_HLD	12
T_NUM_SLD	6
T_NUM_ALL	352
T_JUDGE_TAP	334
T_JUDGE_HLD	48
T_JUDGE_SLD	6
T_JUDGE_ALL	388
TTM_EACHPAIRS	115
TTM_SCR_TAP	165000
TTM_SCR_BRK	10400
TTM_SCR_HLD	12000
TTM_SCR_SLD	9000
TTM_SCR_ALL	196400
TTM_SCR_S	190150
TTM_SCR_SS	196000
TTM_RAT_ACV	10020

