VERSION	0.00.00	1.03.00
FES_MODE	0
BPM_DEF	252.000	252.000	252.000	252.000
MET_DEF	4	4
RESOLUTION	384
CLK_DEF	384
COMPATIBLE_CODE	MA2

BPM	0	0	252.000
MET	0	0	4	4

TAP	2	0	1
TAP	2	192	1
TAP	3	0	1
TAP	4	0	0
TAP	4	192	0
TAP	5	0	0
TAP	6	0	7
TAP	6	192	7
TAP	7	0	7
TAP	8	0	6
TAP	8	192	6
TAP	9	0	6
TAP	9	0	7
TAP	10	0	0
TAP	10	192	0
TAP	11	0	0
HLD	12	0	1	384
TAP	14	0	2
TAP	14	192	2
TAP	15	0	2
HLD	16	0	3	384
TAP	18	0	4
TAP	18	192	4
TAP	19	0	4
HLD	20	0	5	384
TAP	22	0	6
TAP	22	192	6
TAP	23	0	6
HLD	24	0	7	384
TAP	26	0	0
TAP	26	192	0
TAP	27	0	0
TAP	28	0	7
TAP	28	192	7
TAP	29	0	0
TAP	29	0	7
TAP	30	0	6
TAP	30	192	6
TAP	31	0	6
TAP	32	0	5
TAP	32	192	5
TAP	33	0	4
TAP	33	0	5
TAP	34	0	4
TAP	34	192	4
TAP	35	0	4
TAP	36	0	3
TAP	36	192	3
TAP	37	0	3
TAP	37	0	4
TAP	38	0	2
TAP	38	192	2
TAP	39	0	2
TAP	40	0	1
TAP	40	192	1
TAP	41	0	0
TAP	41	0	1
STR	42	0	7
SI_	42	0	7	96	672	4
STR	46	0	0
SI_	46	0	0	96	672	3
STR	50	0	7
SI_	50	0	7	96	672	3
STR	54	0	0
SI_	54	0	0	96	672	4
TAP	58	0	7
TAP	58	192	7
BRK	59	0	0
BRK	59	0	7
TAP	60	0	1
TAP	60	192	1
TAP	61	0	2
TAP	61	192	2
TAP	62	0	3
TAP	62	192	4
TAP	63	0	3
TAP	64	0	5
TAP	64	192	5
TAP	65	0	6
TAP	65	192	6
TAP	66	0	7
TAP	66	192	0
TAP	67	0	7
TAP	68	0	6
TAP	68	192	6
TAP	69	0	5
TAP	69	192	5
TAP	70	0	4
TAP	70	192	3
TAP	71	0	4
TAP	72	0	2
TAP	72	192	2
TAP	73	0	1
TAP	73	192	1
TAP	74	0	0
TAP	74	192	7
TAP	75	0	0
TAP	76	0	7
TAP	76	192	7
TAP	77	0	0
TAP	77	192	0
TAP	78	0	0
TAP	78	0	7
TAP	78	192	0
TAP	78	192	7
BRK	79	0	0
BRK	79	0	7
HLD	80	0	6	384
HLD	82	0	7	384
HLD	84	0	0	384
HLD	86	0	1	384
TAP	88	0	2
TAP	89	0	2
TAP	89	0	3
TAP	90	0	4
TAP	91	0	4
TAP	91	0	5
TAP	92	0	6
TAP	93	0	6
TAP	93	0	7
TAP	94	0	7
TAP	95	0	0
TAP	95	0	7
BRK	96	0	1
STR	98	0	7
SI_	98	0	7	96	672	3
STR	102	0	0
SI_	102	0	0	96	672	4
STR	106	0	7
SI_	106	0	7	96	672	2
STR	110	0	0
SI_	110	0	0	96	672	5
TAP	114	0	6
TAP	114	192	6
TAP	115	0	5
TAP	115	192	5
TAP	116	0	3
TAP	116	0	4
TAP	116	192	3
TAP	116	192	4
TAP	117	0	3
TAP	117	0	4
TAP	118	0	2
TAP	118	192	2
TAP	119	0	1
TAP	119	192	1
TAP	120	0	0
TAP	120	0	7
TAP	120	192	0
TAP	120	192	7
TAP	121	0	0
TAP	121	0	7
TAP	122	0	6
TAP	122	192	6
TAP	123	0	7
TAP	123	192	7
TAP	124	0	0
TAP	124	0	1
TAP	124	192	0
TAP	124	192	1
TAP	125	0	0
TAP	125	0	1
TAP	126	0	2
TAP	126	192	2
TAP	127	0	3
TAP	127	192	3
TAP	128	0	4
TAP	128	0	5
TAP	128	192	4
TAP	128	192	5
TAP	129	0	4
TAP	129	0	5
TAP	130	0	6
TAP	130	192	6
TAP	131	0	5
TAP	131	192	5
TAP	132	0	3
TAP	132	0	4
TAP	132	192	3
TAP	132	192	4
TAP	133	0	3
TAP	133	0	4
TAP	134	0	3
TAP	134	192	3
TAP	135	0	2
TAP	135	192	2
TAP	136	0	0
TAP	136	0	1
TAP	136	192	0
TAP	136	192	1
TAP	137	0	0
TAP	137	0	1
TAP	138	0	6
TAP	138	0	7
TAP	138	192	6
TAP	138	192	7
TAP	139	0	6
TAP	139	0	7
TAP	140	0	0
TAP	140	0	1
TAP	140	192	0
TAP	140	192	1
TAP	141	0	0
TAP	141	0	1
TAP	142	0	6
TAP	142	0	7
TAP	142	192	6
TAP	142	192	7
TAP	143	0	6
TAP	143	0	7
BRK	143	192	6
BRK	143	192	7

T_REC_TAP	181
T_REC_BRK	7
T_REC_XTP	0
T_REC_HLD	8
T_REC_XHO	0
T_REC_STR	8
T_REC_BST	0
T_REC_XST	0
T_REC_TTP	0
T_REC_THO	0
T_REC_SLD	8
T_REC_ALL	212
T_NUM_TAP	189
T_NUM_BRK	7
T_NUM_HLD	8
T_NUM_SLD	8
T_NUM_ALL	212
T_JUDGE_TAP	196
T_JUDGE_HLD	32
T_JUDGE_SLD	8
T_JUDGE_ALL	236
TTM_EACHPAIRS	41
TTM_SCR_TAP	94500
TTM_SCR_BRK	18200
TTM_SCR_HLD	8000
TTM_SCR_SLD	12000
TTM_SCR_ALL	132700
TTM_SCR_S	128050
TTM_SCR_SS	132000
TTM_RAT_ACV	10053

