VERSION	0.00.00	1.03.00
FES_MODE	0
BPM_DEF	145.000	145.000	145.000	145.000
MET_DEF	4	4
RESOLUTION	384
CLK_DEF	384
COMPATIBLE_CODE	MA2

BPM	0	0	145.000
MET	0	0	4	4

TAP	1	336	3
TAP	1	336	4
TAP	2	0	3
HLD	2	0	4	288
TAP	2	192	1
TAP	2	240	2
TAP	2	288	3
HLD	2	336	3	336
TAP	2	336	4
TAP	3	192	6
TAP	3	240	5
HLD	3	288	4	96
HLD	4	0	3	288
TAP	4	192	6
TAP	4	240	5
TAP	4	288	4
TAP	4	336	3
HLD	4	336	4	240
TAP	5	192	3
TAP	5	216	4
TAP	5	240	3
TAP	5	264	4
TAP	5	288	2
TAP	5	288	5
TAP	5	336	2
TAP	5	336	5
HLD	6	0	3	288
HLD	6	0	4	96
TAP	6	192	6
TAP	6	240	5
TAP	6	288	4
HLD	6	336	3	144
HLD	6	336	4	336
TAP	7	192	1
TAP	7	240	2
HLD	7	288	3	192
HLD	8	0	4	288
TAP	8	192	1
TAP	8	240	2
TAP	8	288	3
HLD	8	336	3	144
HLD	8	336	4	144
TAP	9	192	3
TAP	9	216	4
TAP	9	240	3
TAP	9	264	4
TAP	9	312	2
TAP	9	312	5
TAP	9	336	2
TAP	9	336	5
STR	10	0	1
SCR	10	0	1	96	48	4
TAP	10	48	0
TAP	10	96	7
TAP	10	144	6
STR	10	192	5
SCL	10	192	5	96	48	2
TAP	10	240	6
TAP	10	288	7
TAP	10	336	0
STR	11	0	1
SI_	11	0	1	96	48	4
TAP	11	48	1
STR	11	96	0
SI_	11	96	0	96	48	5
TAP	11	144	0
TAP	11	192	2
TAP	11	240	3
TAP	11	288	4
TAP	11	336	2
TAP	11	336	5
STR	12	0	6
SCL	12	0	6	96	48	3
TAP	12	48	7
TAP	12	96	0
TAP	12	144	1
STR	12	192	2
SCR	12	192	2	96	48	5
TAP	12	240	1
TAP	12	288	0
TAP	12	336	7
TAP	13	0	6
TAP	13	48	7
STR	13	96	0
SXR	13	96	0	96	144	3
STR	13	96	5
SXL	13	96	5	96	144	2
STR	14	0	1
SCL	14	0	1	96	48	6
TAP	14	48	5
TAP	14	96	4
TAP	14	144	3
STR	14	192	2
SCR	14	192	2	96	48	5
TAP	14	240	6
TAP	14	288	7
TAP	14	336	0
TAP	15	0	1
TAP	15	0	7
TAP	15	48	2
TAP	15	48	6
STR	15	96	3
SI_	15	96	3	96	48	7
TAP	15	96	5
TAP	15	192	1
TAP	15	192	3
STR	15	240	0
SI_	15	240	0	96	48	4
TAP	15	288	1
TAP	15	288	7
BRK	15	336	0
TAP	16	48	3
TAP	16	48	7
STR	16	96	0
SCL	16	96	0	96	48	5
STR	16	96	4
SCL	16	96	4	96	48	1
TAP	16	192	0
TAP	16	192	4
TAP	16	288	0
TAP	16	288	4
STR	16	336	3
SCR	16	336	3	96	48	6
STR	16	336	7
SCR	16	336	7	96	48	2
TAP	17	48	3
TAP	17	48	7
TAP	17	144	3
TAP	17	144	7
STR	17	192	2
SCR	17	192	2	96	48	5
STR	17	192	6
SCR	17	192	6	96	48	1
TAP	17	240	1
TAP	17	240	5
BRK	17	288	2
BRK	17	288	6
TAP	18	0	2
TAP	18	0	6
TAP	18	48	2
STR	18	48	6
SI_	18	48	6	96	48	3
STR	18	144	1
SI_	18	144	1	96	48	4
TAP	18	144	6
TAP	18	240	1
STR	18	240	5
SV_	18	240	5	96	48	0
STR	18	336	2
SV_	18	336	2	96	48	7
TAP	18	336	5
TAP	19	48	2
STR	19	48	6
SV_	19	48	6	96	48	1
STR	19	144	3
SV_	19	144	3	96	48	0
TAP	19	144	6
TAP	19	240	3
STR	19	240	7
SV_	19	240	7	96	48	4
STR	19	336	2
SUL	19	336	2	96	48	5
TAP	19	336	7
TAP	20	48	2
STR	20	48	6
SCL	20	48	6	96	48	3
STR	20	144	1
SCR	20	144	1	96	48	4
TAP	20	144	6
TAP	20	240	1
STR	20	240	5
SUR	20	240	5	96	48	1
STR	20	336	2
SUL	20	336	2	96	48	6
TAP	20	336	5
TAP	21	48	2
STR	21	48	4
SUR	21	48	4	96	72	3
STR	21	144	3
SCL	21	144	3	96	96	4
TAP	21	144	4
STR	22	0	6
SCL	22	0	6	96	48	3
TAP	22	48	7
TAP	22	96	0
TAP	22	144	1
STR	22	192	2
SCR	22	192	2	96	48	5
TAP	22	240	1
TAP	22	288	0
TAP	22	336	7
STR	23	0	6
SI_	23	0	6	96	48	3
TAP	23	48	6
STR	23	96	7
SI_	23	96	7	96	48	2
TAP	23	144	7
TAP	23	192	5
TAP	23	240	4
TAP	23	288	3
TAP	23	336	2
TAP	23	336	5
STR	24	0	1
SCR	24	0	1	96	48	4
TAP	24	48	0
TAP	24	96	7
TAP	24	144	6
STR	24	192	5
SCL	24	192	5	96	48	2
TAP	24	240	6
TAP	24	288	7
TAP	24	336	0
TAP	25	0	1
TAP	25	48	0
STR	25	96	2
SXR	25	96	2	96	144	5
STR	25	96	7
SXL	25	96	7	96	144	4
STR	26	0	6
SCR	26	0	6	96	48	1
TAP	26	48	2
TAP	26	96	3
TAP	26	144	4
STR	26	192	5
SCL	26	192	5	96	48	2
TAP	26	240	1
TAP	26	288	0
TAP	26	336	7
TAP	27	0	0
TAP	27	0	6
TAP	27	48	1
TAP	27	48	5
TAP	27	96	2
STR	27	96	4
SI_	27	96	4	96	48	0
TAP	27	192	4
TAP	27	192	6
STR	27	240	7
SI_	27	240	7	96	48	3
TAP	27	288	0
TAP	27	288	6
BRK	27	336	7
TAP	28	48	0
TAP	28	48	4
STR	28	96	3
SCR	28	96	3	96	48	6
STR	28	96	7
SCR	28	96	7	96	48	2
TAP	28	192	3
TAP	28	192	7
TAP	28	288	3
TAP	28	288	7
STR	28	336	0
SUL	28	336	0	96	72	2
STR	28	336	4
SUL	28	336	4	96	72	6
TAP	29	48	0
TAP	29	48	4
STR	29	192	0
SI_	29	192	0	96	48	4
BST	29	288	0
SLL	29	288	0	96	48	4
BST	29	288	4
SLL	29	288	4	96	48	0
TAP	30	96	6
TAP	30	96	7
TAP	30	144	4
TAP	30	144	5
HLD	30	192	2	72
HLD	30	192	3	72
TAP	30	288	2
TAP	30	288	3
STR	30	336	6
SLR	30	336	6	96	48	2
STR	30	336	7
SCR	30	336	7	96	48	3
STR	31	48	6
SLL	31	48	6	96	48	2
STR	31	48	7
SCL	31	48	7	96	48	3
TAP	31	144	6
TAP	31	144	7
TAP	31	240	0
TAP	31	240	1
STR	31	288	2
SCL	31	288	2	96	48	7
TAP	31	288	7
TAP	31	336	6
HLD	32	0	5	96
TAP	32	96	4
TAP	32	144	2
TAP	32	144	3
HLD	32	192	0	72
HLD	32	192	7	72
TAP	32	288	0
TAP	32	288	7
STR	32	336	3
SUR	32	336	3	96	48	0
STR	32	336	4
SCR	32	336	4	96	48	7
STR	33	48	3
SCL	33	48	3	96	144	4
STR	33	48	4
SUL	33	48	4	96	144	3
TAP	33	336	2
TAP	33	360	3
TAP	34	0	2
TAP	34	48	1
TAP	34	48	5
TAP	34	96	2
TAP	34	96	6
STR	34	144	3
SI_	34	144	3	96	32	1
STR	34	144	7
SI_	34	144	7	96	32	5
STR	34	240	3
SI_	34	240	3	96	48	0
STR	34	240	7
SI_	34	240	7	96	48	4
STR	34	336	3
SI_	34	336	3	96	48	7
TAP	35	48	1
TAP	35	96	2
STR	35	144	3
SXR	35	144	3	96	144	0
STR	35	144	7
SXR	35	144	7	96	144	4
TAP	35	240	3
TAP	35	240	7
TAP	36	96	2
TAP	36	96	5
TAP	36	144	4
TAP	36	144	7
TAP	36	192	2
TAP	36	192	5
STR	36	240	0
SI_	36	240	0	96	48	4
STR	36	240	3
SI_	36	240	3	96	48	7
TAP	36	336	0
TAP	36	336	3
TAP	37	48	1
TAP	37	48	5
TAP	37	96	3
TAP	37	96	7
STR	37	192	5
SCL	37	192	5	96	48	2
TAP	37	288	1
TAP	37	304	0
TAP	37	320	7
TAP	37	336	6
TAP	38	0	3
TAP	38	0	4
TAP	38	48	0
TAP	38	48	2
TAP	38	96	5
TAP	38	96	6
TAP	38	144	1
TAP	38	144	3
TAP	38	192	0
TAP	38	192	7
TAP	38	240	4
TAP	38	240	6
TAP	38	288	1
TAP	38	288	2
TAP	38	336	5
TAP	38	336	7
TAP	39	0	0
TAP	39	16	1
TAP	39	32	2
TAP	39	48	3
TAP	39	64	4
TAP	39	80	5
TAP	39	96	6
TAP	39	112	7
TAP	39	128	0
TAP	39	144	1
TAP	39	160	2
TAP	39	176	3
BST	39	192	4
SI_	39	192	4	96	24	0
BST	39	264	0
SI_	39	264	0	96	24	4
BST	39	336	7
SCL	39	336	7	96	624	0
TAP	40	96	0
TAP	40	192	7
TAP	40	288	6
TAP	41	0	5
TAP	41	96	4
TAP	41	192	3
TAP	41	288	2
TAP	41	336	7
TAP	41	360	0
HLD	42	0	7	64
HLD	42	64	0	64
HLD	42	128	1	64
HLD	42	192	2	64
HLD	42	256	3	64
HLD	42	320	4	64
STR	43	0	5
SCL	43	0	5	96	48	2
TAP	43	192	2
TAP	43	192	5
TAP	43	240	0
TAP	43	264	7
TAP	43	288	1
TAP	43	312	6
TAP	43	336	2
TAP	43	360	5
TAP	44	0	3
TAP	44	24	4
TAP	44	48	3
TAP	44	72	4
HLD	44	96	1	48
TAP	44	144	0
TAP	44	168	1
TAP	44	192	4
TAP	44	216	3
TAP	44	240	4
TAP	44	264	3
HLD	44	288	6	48
TAP	44	336	7
TAP	44	360	6
TAP	45	0	0
TAP	45	16	1
TAP	45	32	2
TAP	45	48	3
TAP	45	48	4
TAP	45	96	7
TAP	45	112	6
TAP	45	128	5
TAP	45	144	3
TAP	45	144	4
TAP	45	192	1
TAP	45	216	1
TAP	45	240	7
TAP	45	264	7
TAP	45	288	0
TAP	45	312	0
TAP	45	336	6
TAP	45	360	6
HLD	46	0	0	96
TAP	46	96	7
TAP	46	120	0
TAP	46	144	7
TAP	46	168	0
TAP	46	192	7
TAP	46	208	6
TAP	46	224	5
TAP	46	240	0
TAP	46	256	1
TAP	46	272	2
TAP	46	288	6
TAP	46	304	5
TAP	46	320	4
TAP	46	336	1
TAP	46	352	2
TAP	46	368	3
STR	47	0	4
SCR	47	0	4	96	240	3
STR	48	0	1
SCL	48	0	1	96	192	6
STR	48	192	2
SCL	48	192	2	96	240	5
STR	49	0	3
SCL	49	0	3	96	288	4
STR	50	0	6
SCR	50	0	6	96	192	1
STR	50	192	5
SCR	50	192	5	96	240	2
STR	51	0	4
SCR	51	0	4	96	288	3
HLD	52	0	4	192
TAP	52	48	3
TAP	52	96	3
TAP	52	144	3
HLD	52	192	2	192
TAP	52	240	3
TAP	52	288	3
TAP	52	336	3
HLD	53	0	5	192
TAP	53	48	3
TAP	53	96	3
TAP	53	144	3
HLD	53	192	1	192
TAP	53	240	3
TAP	53	288	3
TAP	53	336	3
HLD	54	0	6	96
TAP	54	48	3
HLD	54	96	0	96
TAP	54	144	3
HLD	54	192	7	96
TAP	54	240	4
HLD	54	288	0	96
TAP	54	336	2
HLD	55	0	7	96
TAP	55	48	5
HLD	55	96	0	96
TAP	55	144	1
HLD	55	192	7	96
TAP	55	240	6
TAP	55	288	0
HLD	55	336	2	240
HLD	55	336	5	240
TAP	56	288	2
STR	56	288	5
SCR	56	288	5	96	48	2
STR	57	96	2
SCL	57	96	2	96	48	5
TAP	57	96	5
STR	57	288	7
SI_	57	288	7	96	24	3
TAP	57	304	0
TAP	57	304	6
TAP	57	320	1
TAP	57	320	5
TAP	57	336	2
TAP	57	336	4
STR	58	0	5
SI_	58	0	5	96	24	1
BRK	58	0	7
STR	58	96	2
SI_	58	96	2	96	24	6
BRK	58	96	5
STR	58	192	0
SI_	58	192	0	96	24	4
BRK	58	192	2
BRK	58	288	0
STR	58	288	5
SCR	58	288	5	96	48	0
HLD	59	0	2	96
TAP	59	96	3
TAP	59	144	4
TAP	59	144	5
HLD	59	192	0	72
HLD	59	192	7	72
TAP	59	288	0
TAP	59	288	7
STR	59	336	3
SCL	59	336	3	96	48	0
STR	59	336	4
SUL	59	336	4	96	48	7
STR	60	48	3
SUR	60	48	3	96	144	4
STR	60	48	4
SCR	60	48	4	96	144	3
TAP	60	336	5
TAP	60	360	4
TAP	61	0	5
TAP	61	48	6
TAP	61	48	7
TAP	61	96	2
TAP	61	96	3
STR	61	144	0
SCL	61	144	0	96	48	4
STR	61	144	1
SLL	61	144	1	96	48	5
STR	61	240	0
SCR	61	240	0	96	48	4
STR	61	240	1
SLR	61	240	1	96	48	5
TAP	61	336	0
TAP	61	336	1
TAP	62	48	2
TAP	62	48	6
TAP	62	96	1
TAP	62	96	5
STR	62	144	0
SXL	62	144	0	96	144	3
STR	62	144	4
SXL	62	144	4	96	144	7
TAP	62	240	0
TAP	62	240	4
TAP	63	96	2
TAP	63	96	5
TAP	63	144	0
TAP	63	144	3
TAP	63	192	2
TAP	63	192	5
STR	63	240	4
SI_	63	240	4	96	48	0
STR	63	240	7
SI_	63	240	7	96	48	3
TAP	63	336	4
TAP	63	336	7
TAP	64	48	2
TAP	64	48	6
TAP	64	96	0
TAP	64	96	4
STR	64	192	2
SCR	64	192	2	96	48	5
TAP	64	288	6
TAP	64	304	7
TAP	64	320	0
TAP	64	336	1
TAP	65	0	3
TAP	65	0	4
TAP	65	48	5
TAP	65	48	7
TAP	65	96	1
TAP	65	96	2
TAP	65	144	4
TAP	65	144	6
TAP	65	192	0
TAP	65	192	7
TAP	65	240	1
TAP	65	240	3
TAP	65	288	5
TAP	65	288	6
TAP	65	336	0
TAP	65	336	2
TAP	66	0	7
TAP	66	16	6
TAP	66	32	5
TAP	66	48	4
TAP	66	64	3
TAP	66	80	2
TAP	66	96	1
TAP	66	112	0
TAP	66	128	7
TAP	66	144	6
TAP	66	160	5
TAP	66	176	4
BST	66	192	3
SI_	66	192	3	96	24	7
BST	66	264	7
SI_	66	264	7	96	24	3
BRK	66	336	0
STR	67	96	2
SXL	67	96	2	96	144	1
STR	67	96	6
SXL	67	96	6	96	144	5
TAP	67	144	1
TAP	67	144	5
TAP	68	48	1
TAP	68	72	1
TAP	68	96	4
TAP	68	120	4
TAP	68	144	3
TAP	68	168	3
TAP	68	192	6
TAP	68	216	6
TAP	68	240	0
TAP	68	264	0
TAP	68	288	7
STR	69	0	1
SUL	69	0	1	96	48	3
STR	69	0	6
SUR	69	0	6	96	48	4
TAP	69	192	3
TAP	69	192	4
TAP	69	240	2
TAP	69	264	2
TAP	69	288	1
TAP	69	288	3
TAP	69	336	2
TAP	69	336	4
TAP	70	0	5
TAP	70	24	5
TAP	70	48	4
TAP	70	48	6
STR	70	96	5
SCR	70	96	5	96	96	2
TAP	70	144	3
TAP	70	144	4
STR	70	192	2
SCL	70	192	2	96	96	5
HLD	71	0	3	96
TAP	71	96	4
TAP	71	144	4
TAP	71	144	6
TAP	71	192	3
TAP	71	240	1
TAP	71	240	3
TAP	71	288	2
STR	71	336	2
SXL	71	336	2	96	528	5
STR	71	336	6
SXL	71	336	6	96	528	1
STR	73	240	1
SV_	73	240	1	96	24	2
STR	73	240	5
SV_	73	240	5	96	24	6

T_REC_TAP	406
T_REC_BRK	9
T_REC_XTP	0
T_REC_HLD	44
T_REC_XHO	0
T_REC_STR	106
T_REC_BST	7
T_REC_XST	0
T_REC_TTP	0
T_REC_THO	0
T_REC_SLD	113
T_REC_ALL	685
T_NUM_TAP	512
T_NUM_BRK	16
T_NUM_HLD	44
T_NUM_SLD	113
T_NUM_ALL	685
T_JUDGE_TAP	528
T_JUDGE_HLD	134
T_JUDGE_SLD	113
T_JUDGE_ALL	775
TTM_EACHPAIRS	146
TTM_SCR_TAP	256000
TTM_SCR_BRK	41600
TTM_SCR_HLD	44000
TTM_SCR_SLD	169500
TTM_SCR_ALL	511100
TTM_SCR_S	494250
TTM_SCR_SS	509500
TTM_RAT_ACV	10031

