VERSION	0.00.00	1.03.00
FES_MODE	0
BPM_DEF	145.000	145.000	145.000	145.000
MET_DEF	4	4
RESOLUTION	384
CLK_DEF	384
COMPATIBLE_CODE	MA2

BPM	0	0	145.000
MET	0	0	4	4

HLD	5	192	0	48
HLD	5	240	7	48
TAP	5	288	0
TAP	5	336	0
STR	6	0	0
SI_	6	0	0	96	36	4
TAP	6	0	7
TAP	6	192	5
TAP	6	240	6
TAP	6	288	7
HLD	6	336	0	96
TAP	7	48	7
TAP	7	96	6
TAP	7	144	5
STR	7	192	4
SI_	7	192	4	96	36	0
TAP	8	0	0
STR	8	0	7
SI_	8	0	7	96	36	3
TAP	8	192	2
TAP	8	240	1
TAP	8	288	0
HLD	8	336	7	96
TAP	9	48	0
TAP	9	96	1
TAP	9	144	2
STR	9	192	3
SI_	9	192	3	96	36	7
TAP	10	0	6
TAP	10	0	7
TAP	10	96	4
TAP	10	96	6
TAP	10	192	2
TAP	10	192	3
TAP	10	288	0
TAP	10	288	2
TAP	11	0	6
TAP	11	48	7
TAP	11	96	0
TAP	11	96	5
TAP	11	192	1
TAP	11	240	0
TAP	11	288	2
TAP	11	288	7
TAP	12	0	4
TAP	12	0	5
TAP	12	96	5
TAP	12	96	7
TAP	12	192	0
TAP	12	192	1
TAP	12	288	1
TAP	12	288	3
TAP	13	0	4
TAP	13	0	5
TAP	13	48	4
TAP	13	48	5
STR	13	96	4
SUR	13	96	4	96	108	2
STR	13	96	5
SCR	13	96	5	96	108	1
TAP	14	0	3
TAP	14	0	6
TAP	14	96	2
TAP	14	96	4
TAP	14	192	2
TAP	14	192	7
TAP	14	288	0
TAP	14	288	6
TAP	15	0	5
TAP	15	48	4
TAP	15	96	3
TAP	15	96	6
TAP	15	192	2
TAP	15	240	3
TAP	15	288	1
TAP	15	288	4
TAP	15	336	1
TAP	15	336	4
TAP	16	48	0
TAP	16	48	7
STR	16	96	0
SUL	16	96	0	96	36	4
STR	16	96	7
SCL	16	96	7	96	36	5
TAP	16	288	3
TAP	16	288	4
STR	16	336	3
SCL	16	336	3	96	36	1
STR	16	336	4
SUL	16	336	4	96	36	0
TAP	17	144	0
TAP	17	144	7
STR	17	192	0
SI_	17	192	0	96	48	3
STR	17	192	7
SI_	17	192	7	96	48	4
TAP	18	0	1
TAP	18	0	6
TAP	18	48	1
TAP	18	48	6
TAP	18	144	4
HLD	18	144	5	576
TAP	18	240	6
TAP	18	336	3
TAP	19	48	7
TAP	19	144	2
TAP	19	240	0
HLD	19	336	1	624
TAP	20	48	0
TAP	20	144	2
TAP	20	240	7
TAP	20	336	3
TAP	21	48	6
TAP	21	144	4
STR	21	192	4
SI_	21	192	4	96	48	0
TAP	22	0	2
HLD	22	0	7	96
TAP	22	96	6
HLD	22	192	0	96
TAP	22	192	5
TAP	22	288	1
TAP	23	0	2
TAP	23	0	4
TAP	23	48	1
TAP	23	96	0
TAP	23	96	2
TAP	23	192	3
TAP	23	192	5
TAP	23	240	6
TAP	23	288	5
TAP	23	288	7
HLD	24	0	3	96
TAP	24	0	7
TAP	24	96	2
TAP	24	192	0
HLD	24	192	4	96
TAP	24	288	5
TAP	25	0	2
TAP	25	0	3
TAP	25	48	2
TAP	25	48	3
STR	25	96	2
SCL	25	96	2	96	108	6
STR	25	96	3
SUL	25	96	3	96	108	5
TAP	26	0	0
HLD	26	0	4	96
TAP	26	96	5
HLD	26	192	3	96
TAP	26	192	7
TAP	26	288	2
TAP	27	0	5
TAP	27	0	7
TAP	27	48	4
TAP	27	96	3
TAP	27	96	5
TAP	27	192	0
TAP	27	192	2
TAP	27	240	3
TAP	27	288	2
TAP	27	288	4
TAP	27	336	2
TAP	27	336	4
TAP	28	48	0
TAP	28	48	1
STR	28	96	0
SCL	28	96	0	96	36	6
STR	28	96	1
SUL	28	96	1	96	36	5
TAP	28	288	4
TAP	28	288	5
STR	28	336	4
SCL	28	336	4	96	36	2
STR	28	336	5
SUL	28	336	5	96	36	1
BST	29	288	7
SF_	29	288	7	96	48	3
TAP	30	96	1
TAP	30	96	5
TAP	30	144	2
TAP	30	144	6
TAP	30	192	3
TAP	30	192	7
TAP	30	288	0
TAP	30	288	6
TAP	30	336	0
STR	30	336	6
SI_	30	336	6	96	48	3
STR	31	48	2
SCL	31	48	2	96	96	6
TAP	31	144	6
TAP	31	240	4
TAP	31	288	4
TAP	32	0	3
TAP	32	0	5
TAP	32	96	2
TAP	32	96	6
TAP	32	144	1
TAP	32	144	5
TAP	32	192	0
TAP	32	192	4
TAP	32	288	1
TAP	32	288	7
STR	32	336	1
SI_	32	336	1	96	48	4
TAP	32	336	7
STR	33	48	5
SCR	33	48	5	96	96	1
TAP	33	144	1
TAP	33	240	3
TAP	33	288	3
TAP	34	0	5
TAP	34	48	4
TAP	34	96	3
STR	34	144	2
SI_	34	144	2	96	48	7
STR	34	240	5
SI_	34	240	5	96	48	0
STR	34	336	3
SI_	34	336	3	96	48	7
TAP	35	48	4
TAP	35	96	5
STR	35	144	6
SUL	35	144	6	96	72	2
SUR	35	144	6	96	72	2
TAP	36	0	0
TAP	36	0	4
TAP	36	96	1
TAP	36	144	0
TAP	36	192	7
STR	36	240	6
SI_	36	240	6	96	48	3
STR	36	336	1
SCR	36	336	1	96	72	5
TAP	37	48	7
TAP	37	96	7
TAP	37	192	0
TAP	37	192	7
TAP	37	288	4
TAP	37	288	5
STR	38	0	2
SI_	38	0	2	96	48	7
TAP	38	0	3
STR	38	96	5
SI_	38	96	5	96	48	0
STR	38	192	1
SI_	38	192	1	96	48	4
STR	38	288	6
SI_	38	288	6	96	48	3
STR	39	0	0
SI_	39	0	0	96	48	4
TAP	39	96	7
BRK	39	192	1
TAP	39	192	2
TAP	39	264	5
BRK	39	264	6
BST	39	336	3
SXR	39	336	3	96	240	0
BST	39	336	4
SXL	39	336	4	96	240	7
STR	41	0	0
SCR	41	0	0	96	144	3
STR	41	0	7
SCL	41	0	7	96	144	4
TAP	41	336	0
TAP	41	360	7
HLD	42	0	0	64
HLD	42	64	1	64
HLD	42	128	2	64
HLD	42	192	7	64
HLD	42	256	6	64
HLD	42	320	5	64
STR	43	0	1
SCR	43	0	1	96	72	4
STR	43	192	5
SCR	43	192	5	96	72	0
TAP	44	0	2
TAP	44	48	2
TAP	44	96	1
TAP	44	96	3
TAP	44	192	5
TAP	44	240	5
TAP	44	288	4
TAP	44	288	6
TAP	45	0	3
TAP	45	24	4
TAP	45	48	3
TAP	45	72	4
TAP	45	96	2
TAP	45	120	5
TAP	45	144	2
TAP	45	168	5
TAP	45	192	1
TAP	45	216	6
TAP	45	240	1
TAP	45	264	6
TAP	45	288	0
TAP	45	312	7
TAP	45	336	0
TAP	45	360	7
STR	46	0	0
SI_	46	0	0	96	48	4
TAP	46	192	6
TAP	46	216	7
TAP	46	240	6
TAP	46	288	1
TAP	46	312	0
TAP	46	336	1
STR	47	0	0
SUL	47	0	0	96	192	7
STR	47	0	7
SCL	47	0	7	96	192	0
STR	48	0	5
SCR	48	0	5	96	48	7
STR	48	192	4
SUR	48	192	4	96	72	0
STR	49	0	3
SCL	49	0	3	96	192	4
STR	50	0	2
SCL	50	0	2	96	48	0
STR	50	192	3
SUL	50	192	3	96	72	7
STR	51	0	4
SCR	51	0	4	96	192	3
HLD	52	0	3	96
HLD	52	0	4	96
HLD	52	192	2	96
HLD	52	192	5	96
HLD	53	0	1	96
HLD	53	0	6	96
HLD	53	192	0	96
HLD	53	192	7	96
HLD	54	0	3	48
HLD	54	0	4	48
HLD	54	96	4	48
HLD	54	96	6	48
HLD	54	192	5	48
HLD	54	192	7	48
HLD	54	288	0	48
HLD	54	288	6	48
HLD	55	0	1	48
HLD	55	0	7	48
HLD	55	96	0	48
HLD	55	96	2	48
HLD	55	192	1	48
HLD	55	192	3	48
STR	55	288	3
SCL	55	288	3	96	192	4
STR	55	288	4
SCR	55	288	4	96	192	3
BST	57	0	1
SI_	57	0	1	96	48	3
BST	57	0	4
SI_	57	0	4	96	48	0
BST	57	192	3
SI_	57	192	3	96	48	7
BST	57	192	6
SI_	57	192	6	96	48	4
BST	58	0	0
SXL	58	0	0	96	192	3
BST	58	0	4
SXL	58	0	4	96	192	7
TAP	59	0	2
TAP	59	0	6
TAP	59	96	1
TAP	59	96	5
TAP	59	144	2
TAP	59	144	6
TAP	59	192	3
TAP	59	192	7
TAP	59	288	0
TAP	59	288	6
TAP	59	336	0
STR	59	336	6
SI_	59	336	6	96	48	3
STR	60	48	2
SCL	60	48	2	96	96	6
TAP	60	144	6
TAP	60	240	4
TAP	60	288	4
TAP	61	0	2
TAP	61	48	3
TAP	61	96	4
STR	61	144	5
SI_	61	144	5	96	48	0
STR	61	240	2
SI_	61	240	2	96	48	7
STR	61	336	4
SI_	61	336	4	96	48	0
TAP	62	48	3
TAP	62	96	2
STR	62	144	1
SUL	62	144	1	96	72	5
SUR	62	144	1	96	72	5
TAP	63	0	3
TAP	63	0	7
TAP	63	96	6
TAP	63	144	7
TAP	63	192	0
STR	63	240	1
SI_	63	240	1	96	48	4
STR	63	336	6
SCL	63	336	6	96	72	2
TAP	64	48	0
TAP	64	96	0
TAP	64	192	1
TAP	64	192	7
TAP	64	288	3
TAP	64	288	4
TAP	65	0	0
STR	65	0	6
SI_	65	0	6	96	48	3
STR	65	96	1
SI_	65	96	1	96	48	4
STR	65	192	5
SI_	65	192	5	96	48	0
STR	65	288	2
SI_	65	288	2	96	48	7
STR	66	0	4
SI_	66	0	4	96	48	0
TAP	66	96	3
TAP	66	192	5
BRK	66	192	6
BRK	66	264	1
TAP	66	264	2
BST	66	336	0
SI_	66	336	0	96	48	4
BST	66	336	7
SI_	66	336	7	96	48	3
HLD	67	192	1	192
HLD	67	192	6	192
TAP	68	48	0
TAP	68	72	7
TAP	68	96	0
TAP	68	120	7
TAP	68	144	0
TAP	68	168	7
STR	68	192	0
SI_	68	192	0	96	48	4
TAP	68	216	7
TAP	68	240	0
TAP	68	264	7
HLD	69	0	5	96
TAP	69	96	6
TAP	69	144	7
TAP	69	192	0
TAP	69	192	1
TAP	69	240	2
TAP	69	264	3
TAP	69	288	2
TAP	69	336	0
TAP	69	336	1
TAP	70	0	6
TAP	70	24	7
TAP	70	48	6
STR	70	96	4
SUR	70	96	4	96	144	3
STR	70	96	5
SCR	70	96	5	96	144	2
TAP	70	144	4
TAP	70	144	5
TAP	71	0	4
TAP	71	96	1
TAP	71	96	6
TAP	71	192	2
TAP	71	192	3
TAP	71	240	4
TAP	71	240	5
TAP	71	288	0
TAP	71	288	7
BRK	71	336	1
BRK	71	336	6
BRK	72	48	3
BST	72	48	4
SCR	72	48	4	96	480	3
STR	73	240	1
SSR	73	240	1	96	48	5

T_REC_TAP	270
T_REC_BRK	7
T_REC_XTP	0
T_REC_HLD	43
T_REC_XHO	0
T_REC_STR	66
T_REC_BST	12
T_REC_XST	0
T_REC_TTP	0
T_REC_THO	0
T_REC_SLD	80
T_REC_ALL	478
T_NUM_TAP	336
T_NUM_BRK	19
T_NUM_HLD	43
T_NUM_SLD	80
T_NUM_ALL	478
T_JUDGE_TAP	355
T_JUDGE_HLD	95
T_JUDGE_SLD	80
T_JUDGE_ALL	530
TTM_EACHPAIRS	114
TTM_SCR_TAP	168000
TTM_SCR_BRK	49400
TTM_SCR_HLD	43000
TTM_SCR_SLD	120000
TTM_SCR_ALL	380400
TTM_SCR_S	367150
TTM_SCR_SS	378500
TTM_RAT_ACV	10050

