VERSION	0.00.00	1.03.00
FES_MODE	0
BPM_DEF	145.000	145.000	145.000	145.000
MET_DEF	4	4
RESOLUTION	384
CLK_DEF	384
COMPATIBLE_CODE	MA2

BPM	0	0	145.000
MET	0	0	4	4

HLD	5	192	0	96
HLD	5	192	7	96
STR	6	0	0
SXL	6	0	0	96	480	5
STR	8	0	7
SXR	8	0	7	96	480	2
TAP	10	0	2
TAP	10	96	3
TAP	10	192	4
TAP	10	288	5
TAP	11	0	6
TAP	11	96	6
TAP	11	96	7
TAP	11	192	6
TAP	11	192	7
TAP	12	0	6
TAP	12	96	5
TAP	12	192	4
TAP	12	288	3
TAP	13	0	2
TAP	13	96	2
TAP	13	96	3
TAP	13	192	4
TAP	13	192	5
TAP	14	0	5
TAP	14	96	4
TAP	14	192	3
TAP	14	288	2
TAP	15	0	1
TAP	15	96	0
TAP	15	96	1
TAP	15	192	0
TAP	15	192	1
STR	16	0	6
SCL	16	0	6	96	192	3
STR	16	0	7
SCR	16	0	7	96	192	2
TAP	17	96	2
TAP	17	96	3
TAP	17	192	2
TAP	17	192	3
BRK	17	288	1
BRK	17	288	4
HLD	18	0	2	96
TAP	18	96	3
HLD	18	192	5	96
TAP	18	288	4
HLD	19	0	2	96
TAP	19	96	3
TAP	19	192	3
TAP	19	192	4
HLD	20	0	5	96
TAP	20	96	4
HLD	20	192	2	96
TAP	20	288	3
HLD	21	0	5	96
TAP	21	96	4
BRK	21	192	3
BRK	21	192	4
BRK	21	288	2
BRK	21	288	5
TAP	22	0	5
TAP	22	96	4
TAP	22	192	3
TAP	22	288	2
TAP	23	0	1
TAP	23	96	0
TAP	23	96	1
TAP	23	192	2
TAP	23	192	7
TAP	24	0	1
TAP	24	96	2
TAP	24	192	3
TAP	24	288	4
TAP	25	0	4
TAP	25	0	5
TAP	25	96	2
TAP	25	96	3
TAP	25	192	2
TAP	25	192	5
TAP	26	0	2
TAP	26	96	3
TAP	26	192	4
TAP	26	288	5
TAP	27	0	6
TAP	27	96	6
TAP	27	96	7
TAP	27	192	0
TAP	27	192	5
STR	28	0	0
SCL	28	0	0	96	192	5
STR	28	0	1
SCR	28	0	1	96	192	4
TAP	29	96	3
TAP	29	96	4
TAP	29	192	3
TAP	29	192	4
BRK	29	288	2
BRK	29	288	5
TAP	30	0	4
HLD	30	0	5	96
TAP	30	96	1
HLD	30	192	2	96
TAP	30	192	3
TAP	30	288	6
TAP	31	0	4
HLD	31	0	5	96
TAP	31	96	1
TAP	31	192	0
TAP	31	192	2
HLD	32	0	2	96
TAP	32	0	3
TAP	32	96	6
TAP	32	192	4
HLD	32	192	5	96
TAP	32	288	1
HLD	33	0	2	96
TAP	33	0	3
TAP	33	96	6
TAP	33	192	5
TAP	33	192	7
TAP	34	0	6
TAP	34	0	7
TAP	34	96	6
TAP	34	96	7
TAP	34	192	0
TAP	34	192	5
TAP	35	0	0
TAP	35	0	1
TAP	35	96	0
TAP	35	96	1
TAP	35	192	2
TAP	35	192	7
TAP	36	0	1
TAP	36	96	0
TAP	36	96	1
TAP	36	192	6
STR	36	288	6
SCL	36	288	6	96	192	3
STR	36	288	7
SUL	36	288	7	96	192	2
HLD	38	0	2	96
TAP	38	96	3
HLD	38	192	5	96
TAP	38	288	4
TAP	39	0	2
TAP	39	0	3
TAP	39	96	4
TAP	39	96	5
BRK	39	192	1
BRK	39	192	6
STR	40	0	0
SI_	40	0	0	96	192	5
STR	40	0	1
SI_	40	0	1	96	192	4
TAP	41	0	6
TAP	41	96	6
TAP	41	192	7
TAP	41	288	7
STR	42	0	0
SI_	42	0	0	96	192	5
STR	42	0	1
SI_	42	0	1	96	192	4
TAP	43	0	6
TAP	43	96	7
TAP	43	192	0
TAP	43	192	5
STR	44	0	6
SI_	44	0	6	96	192	3
STR	44	0	7
SI_	44	0	7	96	192	2
TAP	45	0	1
TAP	45	96	1
TAP	45	192	0
TAP	45	288	0
STR	46	0	6
SI_	46	0	6	96	192	3
STR	46	0	7
SI_	46	0	7	96	192	2
TAP	47	0	1
TAP	47	96	0
TAP	47	192	2
TAP	47	192	7
HLD	48	0	1	192
HLD	48	192	2	192
TAP	49	0	3
TAP	49	192	3
TAP	49	192	4
HLD	50	0	4	192
HLD	50	192	5	192
TAP	51	0	6
TAP	51	192	0
TAP	51	192	7
HLD	52	0	0	192
HLD	52	192	7	192
HLD	53	0	6	192
HLD	53	192	5	192
TAP	54	0	4
TAP	54	96	3
TAP	54	192	2
TAP	54	288	1
HLD	55	0	0	96
HLD	55	96	7	96
HLD	55	192	0	96
HLD	55	288	7	96
BRK	57	0	0
BRK	57	0	7
BRK	57	192	0
BRK	57	192	7
BST	58	0	0
SI_	58	0	0	96	144	3
BST	58	0	7
SI_	58	0	7	96	144	4
HLD	59	0	2	96
TAP	59	0	3
TAP	59	96	7
TAP	59	192	4
HLD	59	192	5	96
TAP	59	288	0
HLD	60	0	2	96
TAP	60	0	3
TAP	60	96	7
TAP	60	192	0
TAP	60	192	6
TAP	61	0	1
TAP	61	96	0
TAP	61	96	2
TAP	61	192	3
TAP	61	192	7
TAP	62	0	6
TAP	62	96	5
TAP	62	96	7
TAP	62	192	0
TAP	62	192	4
TAP	63	0	6
TAP	63	0	7
TAP	63	96	6
TAP	63	96	7
TAP	63	192	0
TAP	63	192	1
STR	63	288	0
SUR	63	288	0	96	192	5
STR	63	288	1
SCR	63	288	1	96	192	4
HLD	65	0	6	96
TAP	65	96	4
HLD	65	192	1	96
TAP	65	288	3
TAP	66	0	4
TAP	66	0	6
TAP	66	96	1
TAP	66	96	3
BRK	66	192	0
BRK	66	192	7
HLD	67	0	1	96
TAP	67	96	0
HLD	67	192	6	96
STR	67	288	7
SSR	67	288	7	96	288	3
HLD	69	0	5	96
TAP	69	96	4
HLD	69	192	2	96
TAP	69	288	3
HLD	70	0	5	96
TAP	70	96	4
TAP	70	192	3
TAP	70	192	6
TAP	70	288	3
TAP	70	288	6
TAP	71	0	6
TAP	71	0	7
TAP	71	96	0
TAP	71	96	1
TAP	71	192	0
TAP	71	192	7
TAP	71	288	0
TAP	71	288	7
STR	71	336	0
SXL	71	336	0	96	384	3
STR	71	336	7
SXR	71	336	7	96	384	4

T_REC_TAP	181
T_REC_BRK	16
T_REC_XTP	0
T_REC_HLD	38
T_REC_XHO	0
T_REC_STR	21
T_REC_BST	2
T_REC_XST	0
T_REC_TTP	0
T_REC_THO	0
T_REC_SLD	23
T_REC_ALL	281
T_NUM_TAP	202
T_NUM_BRK	18
T_NUM_HLD	38
T_NUM_SLD	23
T_NUM_ALL	281
T_JUDGE_TAP	220
T_JUDGE_HLD	92
T_JUDGE_SLD	23
T_JUDGE_ALL	335
TTM_EACHPAIRS	77
TTM_SCR_TAP	101000
TTM_SCR_BRK	46800
TTM_SCR_HLD	38000
TTM_SCR_SLD	34500
TTM_SCR_ALL	220300
TTM_SCR_S	211950
TTM_SCR_SS	218500
TTM_RAT_ACV	10082

