VERSION	0.00.00	1.03.00
FES_MODE	0
BPM_DEF	145.000	145.000	145.000	145.000
MET_DEF	4	4
RESOLUTION	384
CLK_DEF	384
COMPATIBLE_CODE	MA2

BPM	0	0	145.000
MET	0	0	4	4

TAP	6	0	4
TAP	6	192	4
TAP	7	0	5
TAP	7	192	5
TAP	8	0	6
TAP	8	192	6
HLD	9	0	7	192
TAP	10	0	0
TAP	10	192	0
TAP	11	0	1
TAP	11	96	1
TAP	11	192	1
TAP	12	0	2
TAP	12	192	2
TAP	13	0	3
TAP	13	96	3
TAP	13	192	3
TAP	13	192	4
TAP	14	0	4
TAP	14	192	4
TAP	15	0	5
TAP	15	96	5
TAP	15	192	5
TAP	16	0	6
TAP	16	192	6
TAP	17	0	7
TAP	17	96	7
BRK	17	192	0
BRK	17	192	7
HLD	18	0	7	192
TAP	19	0	7
TAP	19	96	6
TAP	19	192	7
HLD	20	0	0	192
TAP	21	0	0
TAP	21	96	1
BRK	21	192	0
TAP	22	0	7
TAP	22	192	0
TAP	22	192	7
TAP	23	0	6
TAP	23	96	6
TAP	23	192	6
TAP	23	192	7
TAP	24	0	5
TAP	24	96	5
TAP	24	192	4
TAP	24	288	4
TAP	25	0	3
TAP	25	96	4
TAP	25	192	3
TAP	26	0	3
TAP	26	192	3
TAP	26	192	4
TAP	27	0	2
TAP	27	96	2
TAP	27	192	2
TAP	27	192	3
TAP	28	0	1
TAP	28	96	1
TAP	28	192	0
TAP	28	288	0
TAP	29	0	7
TAP	29	96	0
BRK	29	192	7
TAP	30	0	7
TAP	30	96	7
TAP	30	192	0
TAP	30	288	0
TAP	31	0	1
TAP	31	96	1
TAP	31	192	0
TAP	31	192	7
TAP	32	0	0
TAP	32	96	0
TAP	32	192	7
TAP	32	288	7
TAP	33	0	6
TAP	33	96	6
TAP	33	192	0
TAP	33	192	7
TAP	34	0	0
TAP	34	96	0
TAP	34	192	1
TAP	34	288	1
TAP	35	0	2
TAP	35	96	2
TAP	35	192	3
TAP	35	192	4
TAP	36	0	4
TAP	36	96	4
TAP	36	192	5
TAP	36	288	5
TAP	37	0	6
TAP	37	0	7
TAP	37	96	6
TAP	37	96	7
BRK	37	192	6
BRK	37	192	7
TAP	38	0	0
TAP	38	96	0
TAP	38	192	7
TAP	38	288	7
TAP	39	0	1
TAP	39	0	6
TAP	39	96	1
TAP	39	96	6
TAP	39	192	1
TAP	39	192	6
STR	40	0	0
SI_	40	0	0	96	288	3
STR	40	0	7
SI_	40	0	7	96	288	4
TAP	42	0	7
TAP	42	192	7
TAP	43	0	6
TAP	43	192	6
TAP	44	0	5
TAP	44	96	5
TAP	44	192	5
TAP	45	0	4
TAP	45	96	4
TAP	45	192	4
TAP	46	0	3
TAP	46	96	3
TAP	46	192	2
TAP	46	288	2
HLD	47	0	2	192
HLD	47	0	3	192
STR	48	0	1
SI_	48	0	1	96	288	4
STR	50	0	6
SI_	50	0	6	96	288	3
STR	52	0	0
SI_	52	0	0	96	288	4
STR	54	0	7
SI_	54	0	7	96	288	3
BRK	56	0	0
TAP	57	0	0
TAP	57	0	1
TAP	57	192	0
TAP	57	192	7
TAP	58	0	6
TAP	58	0	7
TAP	58	192	0
TAP	58	192	7
TAP	59	0	1
TAP	59	0	7
TAP	59	192	0
TAP	59	192	6
TAP	60	0	7
TAP	60	96	0
TAP	60	192	7
TAP	61	0	7
TAP	61	96	7
TAP	61	192	6
TAP	61	288	6
TAP	62	0	5
TAP	62	96	5
TAP	62	192	3
TAP	62	192	4
TAP	63	0	2
TAP	63	96	2
TAP	63	192	1
TAP	63	288	1
TAP	64	0	0
TAP	64	96	0
BRK	64	192	1
BRK	64	192	7
TAP	65	0	0
TAP	65	96	0
TAP	65	192	7
TAP	65	288	7
TAP	66	0	1
TAP	66	0	6
TAP	66	96	1
TAP	66	96	6
TAP	66	192	1
TAP	66	192	6
STR	67	0	0
SI_	67	0	0	96	288	3
STR	69	0	7
SI_	69	0	7	96	288	4
TAP	71	0	2
TAP	71	96	2
TAP	71	192	1
TAP	71	288	1
STR	72	0	0
SI_	72	0	0	96	288	4

T_REC_TAP	157
T_REC_BRK	9
T_REC_XTP	0
T_REC_HLD	5
T_REC_XHO	0
T_REC_STR	9
T_REC_BST	0
T_REC_XST	0
T_REC_TTP	0
T_REC_THO	0
T_REC_SLD	9
T_REC_ALL	189
T_NUM_TAP	166
T_NUM_BRK	9
T_NUM_HLD	5
T_NUM_SLD	9
T_NUM_ALL	189
T_JUDGE_TAP	175
T_JUDGE_HLD	20
T_JUDGE_SLD	9
T_JUDGE_ALL	204
TTM_EACHPAIRS	28
TTM_SCR_TAP	83000
TTM_SCR_BRK	23400
TTM_SCR_HLD	5000
TTM_SCR_SLD	13500
TTM_SCR_ALL	124900
TTM_SCR_S	120300
TTM_SCR_SS	124000
TTM_RAT_ACV	10072

