VERSION	0.00.00	1.03.00
FES_MODE	0
BPM_DEF	175.000	175.000	175.000	175.000
MET_DEF	4	4
RESOLUTION	384
CLK_DEF	384
COMPATIBLE_CODE	MA2

BPM	0	0	175.000
MET	0	0	4	4

TAP	1	0	6
TAP	1	48	7
TAP	1	96	0
TAP	1	144	1
TAP	1	240	0
TAP	1	288	7
TAP	1	336	6
TAP	2	0	5
TAP	2	48	4
TAP	2	96	3
TAP	2	144	2
TAP	2	240	3
TAP	2	288	4
TAP	2	336	5
TAP	3	0	2
TAP	3	0	6
TAP	3	48	7
TAP	3	96	0
TAP	3	144	1
TAP	3	192	0
TAP	3	192	4
TAP	3	240	3
TAP	3	288	2
TAP	3	336	1
TAP	4	0	2
TAP	4	0	6
TAP	4	48	3
TAP	4	96	4
TAP	4	144	5
BRK	4	240	0
BRK	4	288	0
TAP	5	0	3
TAP	5	0	7
TAP	5	48	4
TAP	5	96	5
TAP	5	144	6
TAP	5	240	0
TAP	5	288	1
TAP	5	336	2
TAP	6	0	0
TAP	6	0	4
TAP	6	48	3
TAP	6	96	2
TAP	6	144	1
TAP	6	240	6
TAP	6	288	7
TAP	6	336	0
TAP	7	0	1
TAP	7	0	5
TAP	7	48	2
TAP	7	96	3
TAP	7	144	2
TAP	7	192	3
TAP	7	192	7
TAP	7	240	4
TAP	7	288	5
TAP	7	336	4
TAP	8	0	3
TAP	8	0	7
TAP	8	48	2
TAP	8	48	6
TAP	8	96	1
TAP	8	96	5
BRK	8	144	0
BRK	8	144	4
TAP	8	240	1
TAP	8	288	0
TAP	8	336	7
BST	9	0	1
SUR	9	0	1	96	192	3
TAP	9	0	6
TAP	10	48	4
TAP	10	96	5
TAP	10	144	6
TAP	10	192	7
TAP	10	240	1
TAP	10	288	0
TAP	10	336	7
STR	11	0	1
SUR	11	0	1	96	192	3
TAP	11	0	6
TAP	12	48	0
TAP	12	72	1
TAP	12	96	2
TAP	12	120	3
TAP	12	144	4
TAP	12	168	5
TAP	12	192	6
TAP	12	288	0
TAP	12	288	7
HLD	13	0	1	96
HLD	13	0	2	96
HLD	13	192	5	96
HLD	13	192	6	96
TAP	14	0	1
TAP	14	0	2
TAP	14	96	5
TAP	14	96	6
TAP	14	192	1
TAP	14	192	2
TAP	14	288	5
TAP	14	288	6
TAP	15	0	3
STR	15	0	4
SI_	15	0	4	96	48	6
SCR	15	0	4	96	48	6
STR	15	192	3
SI_	15	192	3	96	48	1
SCL	15	192	3	96	48	1
TAP	15	192	4
STR	16	0	0
SI_	16	0	0	96	48	4
STR	16	0	6
SI_	16	0	6	96	48	2
BRK	16	240	0
BRK	16	288	0
TAP	17	0	0
TAP	17	0	7
TAP	17	48	1
TAP	17	72	0
TAP	17	96	1
TAP	17	144	2
HLD	17	144	3	144
BRK	17	240	4
BRK	17	288	4
TAP	18	0	0
TAP	18	0	7
TAP	18	48	6
TAP	18	72	7
TAP	18	96	6
HLD	18	144	4	144
TAP	18	144	5
BRK	18	240	3
BRK	18	288	3
TAP	19	0	0
TAP	19	0	7
TAP	19	48	1
TAP	19	72	0
TAP	19	96	1
TAP	19	144	2
HLD	19	144	3	144
BRK	19	240	4
BRK	19	288	4
TAP	20	0	2
TAP	20	0	3
TAP	20	96	4
TAP	20	96	5
TAP	20	192	1
TAP	20	240	0
TAP	20	288	7
TAP	20	336	6
TAP	21	0	3
TAP	21	0	4
TAP	21	48	5
TAP	21	72	4
TAP	21	96	5
TAP	21	144	6
HLD	21	144	7	144
BRK	21	240	0
BRK	21	288	0
TAP	22	0	3
TAP	22	0	4
TAP	22	48	2
TAP	22	72	3
TAP	22	96	2
HLD	22	144	0	144
TAP	22	144	1
BRK	22	240	7
BRK	22	288	7
TAP	23	0	3
TAP	23	0	4
TAP	23	48	5
TAP	23	72	4
TAP	23	96	5
TAP	23	144	6
HLD	23	144	7	144
BRK	23	240	0
BRK	23	288	0
TAP	24	0	0
TAP	24	24	7
TAP	24	48	0
TAP	24	72	7
TAP	24	96	1
TAP	24	120	6
TAP	24	144	1
TAP	24	168	6
TAP	24	192	0
TAP	24	192	7
TAP	24	240	1
TAP	24	240	6
TAP	24	288	2
TAP	24	288	5
TAP	24	336	3
TAP	24	336	4
TAP	25	0	1
TAP	25	0	6
TAP	25	48	2
TAP	25	72	3
TAP	25	96	2
STR	25	144	0
SI_	25	144	0	96	48	4
TAP	25	144	4
BRK	25	240	7
BRK	25	288	7
TAP	26	0	1
TAP	26	0	6
TAP	26	48	5
TAP	26	72	4
TAP	26	96	5
TAP	26	144	3
STR	26	144	7
SI_	26	144	7	96	48	3
BRK	26	240	0
BRK	26	288	0
TAP	27	0	1
TAP	27	0	5
TAP	27	48	2
TAP	27	72	3
TAP	27	96	2
STR	27	144	0
SI_	27	144	0	96	48	4
TAP	27	144	7
BRK	27	240	7
BRK	27	288	7
TAP	28	0	2
TAP	28	0	3
TAP	28	96	4
TAP	28	96	5
TAP	28	192	1
TAP	28	240	0
TAP	28	288	7
TAP	28	336	6
TAP	29	0	2
TAP	29	0	5
TAP	29	48	6
TAP	29	72	7
TAP	29	96	6
TAP	29	144	0
STR	29	144	4
SI_	29	144	4	96	48	0
BRK	29	240	7
BRK	29	288	7
TAP	30	0	2
TAP	30	0	5
TAP	30	48	1
TAP	30	72	0
TAP	30	96	1
STR	30	144	3
SI_	30	144	3	96	48	7
TAP	30	144	7
BRK	30	240	0
BRK	30	288	0
TAP	31	0	1
TAP	31	24	1
TAP	31	72	7
TAP	31	96	7
TAP	31	144	3
TAP	31	168	3
TAP	31	216	5
TAP	31	240	5
TAP	31	288	0
TAP	31	288	4
TAP	31	336	2
TAP	31	336	6
TAP	32	0	0
TAP	32	0	7
TAP	32	48	1
TAP	32	48	6
TAP	32	96	2
TAP	32	96	5
TAP	32	144	3
TAP	32	144	4
TAP	32	168	3
STR	32	168	4
SI_	32	168	4	96	48	0
BRK	32	288	7
HLD	33	0	2	72
TAP	33	72	3
TAP	33	96	2
TAP	33	144	0
TAP	33	144	1
STR	33	192	0
SI_	33	192	0	96	48	4
TAP	33	192	7
TAP	33	288	0
TAP	33	288	6
HLD	34	0	5	72
TAP	34	72	4
TAP	34	96	5
TAP	34	144	6
TAP	34	144	7
TAP	34	192	0
STR	34	192	7
SI_	34	192	7	96	48	3
TAP	34	288	1
TAP	34	288	7
STR	35	0	1
SUR	35	0	1	96	96	3
STR	35	192	0
SI_	35	192	0	96	48	6
SV_	35	192	0	96	48	2
STR	36	0	4
SCL	36	0	4	96	48	1
HLD	36	0	6	96
BRK	36	192	3
BRK	36	192	7
BRK	36	288	1
BRK	36	288	5
STR	37	0	1
SI_	37	0	1	96	48	4
TAP	37	24	0
TAP	37	48	2
TAP	37	72	7
TAP	37	96	1
TAP	37	144	5
STR	37	192	2
SI_	37	192	2	96	48	0
STR	37	192	7
SI_	37	192	7	96	48	3
BRK	37	288	2
BRK	37	288	7
STR	38	0	6
SI_	38	0	6	96	48	3
TAP	38	24	7
TAP	38	48	5
TAP	38	72	0
TAP	38	96	6
TAP	38	144	2
STR	38	192	0
SI_	38	192	0	96	48	4
STR	38	192	5
SI_	38	192	5	96	48	7
BRK	38	288	0
BRK	38	288	5
TAP	39	0	0
HLD	39	0	3	96
TAP	39	96	2
TAP	39	144	5
HLD	39	192	4	96
TAP	39	192	7
TAP	39	288	1
TAP	39	336	6
BRK	40	0	1
BRK	40	0	4
BRK	40	72	3
BRK	40	72	6
BRK	40	144	0
BRK	40	144	2
BRK	40	216	5
BRK	40	216	7
BRK	40	288	1
BRK	40	288	6
TAP	41	0	1
TAP	41	0	4
TAP	41	48	2
TAP	41	72	3
TAP	41	96	2
TAP	41	144	0
TAP	41	144	7
STR	41	192	1
SI_	41	192	1	96	48	4
TAP	41	192	6
BRK	41	288	0
BRK	41	288	1
TAP	42	0	3
TAP	42	0	6
TAP	42	48	5
TAP	42	72	4
TAP	42	96	5
TAP	42	144	0
TAP	42	144	7
TAP	42	192	1
TAP	42	192	6
BRK	42	240	7
BRK	42	264	0
BRK	42	288	7
TAP	43	0	1
TAP	43	0	4
TAP	43	48	2
TAP	43	72	3
TAP	43	96	2
TAP	43	144	0
TAP	43	144	1
TAP	43	192	3
TAP	43	192	6
TAP	43	240	5
TAP	43	264	4
TAP	43	288	5
TAP	43	336	6
TAP	43	336	7
TAP	44	0	2
BRK	44	48	0
TAP	44	96	5
BRK	44	144	7
TAP	44	192	3
TAP	44	192	4
BRK	44	240	1
BRK	44	240	6
BRK	44	288	0
BRK	44	288	7
STR	45	0	1
SCR	45	0	1	96	48	4
TAP	45	96	1
STR	45	192	1
SCR	45	192	1	96	48	4
TAP	45	288	1
TAP	46	0	6
TAP	46	0	7
TAP	46	96	0
TAP	46	96	1
TAP	46	192	3
TAP	46	192	4
TAP	46	240	3
TAP	46	240	4
TAP	46	288	3
TAP	46	288	4
HLD	47	0	4	96
HLD	47	0	5	96
HLD	47	192	2	96
HLD	47	192	3	96
STR	48	0	0
SXL	48	0	0	96	192	3
STR	48	0	6
SXR	48	0	6	96	192	3
HLD	49	0	2	384
TAP	49	96	3
TAP	49	144	3
HLD	50	0	3	384
TAP	50	96	4
TAP	50	144	4
TAP	50	240	4
TAP	50	288	4
HLD	51	0	4	384
TAP	51	96	5
TAP	51	144	5
HLD	52	0	5	384
TAP	52	96	2
TAP	52	144	2
TAP	52	240	0
TAP	52	288	0
HLD	53	0	0	96
HLD	53	96	1	96
HLD	53	192	2	96
HLD	53	288	3	96
HLD	54	0	4	96
HLD	54	96	5	96
HLD	54	192	6	96
HLD	54	288	7	96
BRK	55	0	0
BRK	55	192	1
BST	56	0	1
SCR	56	0	1	96	144	1
SXR	56	0	1	96	144	4
BRK	56	0	6
STR	57	0	3
SCL	57	0	3	96	48	0
STR	57	0	7
SCL	57	0	7	96	48	4
STR	57	96	3
SUR	57	96	3	96	48	7
STR	57	96	7
SUR	57	96	7	96	48	3
STR	57	192	3
SCL	57	192	3	96	48	0
STR	57	192	7
SCL	57	192	7	96	48	4
STR	57	288	3
SUR	57	288	3	96	48	7
STR	57	288	7
SUR	57	288	7	96	48	3
STR	58	0	3
SCL	58	0	3	96	48	0
STR	58	0	7
SCL	58	0	7	96	48	4
STR	58	96	3
SUR	58	96	3	96	48	7
STR	58	96	7
SUR	58	96	7	96	48	3
TAP	58	192	3
TAP	58	192	7
STR	59	0	0
SCR	59	0	0	96	48	3
STR	59	0	4
SCR	59	0	4	96	48	7
STR	59	96	0
SUL	59	96	0	96	48	4
STR	59	96	4
SUL	59	96	4	96	48	0
STR	59	192	0
SCR	59	192	0	96	48	3
STR	59	192	4
SCR	59	192	4	96	48	7
STR	59	288	0
SUL	59	288	0	96	48	4
STR	59	288	4
SUL	59	288	4	96	48	0
STR	60	0	0
SCR	60	0	0	96	48	3
STR	60	0	4
SCR	60	0	4	96	48	7
STR	60	96	0
SUL	60	96	0	96	48	4
STR	60	96	4
SUL	60	96	4	96	48	0
TAP	60	192	0
TAP	60	192	4
BST	60	288	2
SI_	60	288	2	96	48	7
BST	60	288	6
SI_	60	288	6	96	48	3
BRK	61	0	2
BRK	61	0	6
TAP	61	192	0
TAP	61	192	1
TAP	61	288	6
TAP	61	288	7
TAP	62	0	3
TAP	62	0	4
TAP	62	48	2
TAP	62	72	3
TAP	62	96	2
TAP	62	144	3
TAP	62	144	4
TAP	62	192	3
TAP	62	192	4
TAP	62	240	5
TAP	62	264	4
TAP	62	288	5
TAP	62	336	3
TAP	62	336	4
HLD	63	0	1	72
HLD	63	0	4	72
HLD	63	96	2	48
HLD	63	96	3	48
HLD	63	192	3	72
HLD	63	192	6	72
HLD	63	288	4	48
HLD	63	288	5	48
BST	64	0	3
SI_	64	0	3	96	48	1
BST	64	0	4
SI_	64	0	4	96	48	0
BST	64	96	3
SI_	64	96	3	96	48	7
BST	64	96	4
SI_	64	96	4	96	48	6
BRK	64	192	3
BRK	64	192	4
HLD	65	0	5	96
TAP	65	48	7
HLD	65	96	3	96
TAP	65	144	7
HLD	65	192	4	96
TAP	65	240	0
HLD	65	288	2	96
TAP	65	336	0
TAP	66	0	3
TAP	66	48	0
TAP	66	48	1
TAP	66	96	6
TAP	66	96	7
TAP	66	144	4
TAP	66	144	5
TAP	66	192	2
TAP	66	192	3
TAP	66	240	7
TAP	66	288	0
TAP	66	336	1
HLD	67	0	2	96
TAP	67	48	0
HLD	67	96	4	96
TAP	67	144	0
HLD	67	192	3	96
TAP	67	240	7
HLD	67	288	5	96
TAP	67	336	7
TAP	68	0	4
TAP	68	48	7
TAP	68	72	6
TAP	68	96	5
TAP	68	120	4
TAP	68	144	3
TAP	68	168	2
TAP	68	192	1
TAP	68	288	1
TAP	68	288	6
STR	69	0	0
SI_	69	0	0	96	48	4
STR	69	96	7
SI_	69	96	7	96	48	3
STR	69	192	1
SI_	69	192	1	96	48	4
STR	69	288	6
SI_	69	288	6	96	48	3
STR	70	0	0
SI_	70	0	0	96	48	5
TAP	70	48	0
STR	70	96	7
SI_	70	96	7	96	48	2
TAP	70	144	7
STR	70	192	1
SI_	70	192	1	96	48	4
TAP	70	240	1
STR	70	288	6
SI_	70	288	6	96	48	3
TAP	70	336	6
STR	71	0	1
SI_	71	0	1	96	48	3
STR	71	48	0
SI_	71	48	0	96	48	4
TAP	71	96	1
TAP	71	144	0
STR	71	192	7
SI_	71	192	7	96	48	3
STR	71	240	6
SI_	71	240	6	96	48	4
TAP	71	288	7
TAP	71	336	6
BST	72	0	0
SF_	72	0	0	96	96	4
BRK	72	288	2
BRK	72	288	6
TAP	73	0	3
TAP	73	0	4
STR	73	48	1
SXR	73	48	1	96	144	4
TAP	73	72	0
TAP	73	96	1
TAP	73	144	6
BRK	73	240	5
BRK	73	288	5
TAP	74	0	3
TAP	74	0	4
STR	74	48	1
SXR	74	48	1	96	144	4
TAP	74	72	0
TAP	74	96	1
TAP	74	144	6
BRK	74	240	5
BRK	74	288	5
TAP	75	0	3
TAP	75	0	4
STR	75	48	1
SXR	75	48	1	96	144	4
TAP	75	72	0
TAP	75	96	1
TAP	75	144	6
BRK	75	240	5
BRK	75	288	5
HLD	76	0	0	48
HLD	76	0	1	48
HLD	76	96	3	48
HLD	76	96	4	48
HLD	76	192	6	48
HLD	76	192	7	48
HLD	76	288	3	48
HLD	76	288	4	48
TAP	77	0	3
TAP	77	0	4
STR	77	48	6
SXL	77	48	6	96	144	3
TAP	77	72	7
TAP	77	96	6
TAP	77	144	1
BRK	77	240	2
BRK	77	288	2
TAP	78	0	3
TAP	78	0	4
STR	78	48	6
SXL	78	48	6	96	144	3
TAP	78	72	7
TAP	78	96	6
TAP	78	144	1
BRK	78	240	2
BRK	78	288	2
TAP	79	0	3
TAP	79	0	4
STR	79	48	6
SXL	79	48	6	96	144	3
TAP	79	72	7
TAP	79	96	6
TAP	79	144	1
BRK	79	240	2
BRK	79	288	2
HLD	80	0	1	48
HLD	80	0	2	48
HLD	80	96	3	48
HLD	80	96	4	48
HLD	80	192	5	48
HLD	80	192	6	48
HLD	80	288	3	48
HLD	80	288	4	48
TAP	81	0	2
TAP	81	0	5
STR	81	48	1
SXR	81	48	1	96	144	4
TAP	81	72	0
TAP	81	96	1
TAP	81	144	6
BRK	81	240	5
BRK	81	288	5
TAP	82	0	2
TAP	82	0	5
STR	82	48	1
SXR	82	48	1	96	144	4
TAP	82	72	0
TAP	82	96	1
TAP	82	144	6
BRK	82	240	5
BRK	82	288	5
TAP	83	0	2
TAP	83	0	5
STR	83	48	1
SXR	83	48	1	96	144	4
TAP	83	72	0
TAP	83	96	1
TAP	83	144	6
BRK	83	240	5
BRK	83	288	5
TAP	84	0	2
TAP	84	0	5
TAP	84	48	2
TAP	84	48	5
TAP	84	96	2
TAP	84	96	5
TAP	84	144	2
TAP	84	144	5
TAP	84	192	2
TAP	84	192	5
TAP	84	240	2
TAP	84	240	5
TAP	84	288	2
TAP	84	288	5
TAP	84	336	2
TAP	84	336	5
STR	85	0	1
SCR	85	0	1	96	144	1
SXR	85	0	1	96	144	4
TAP	85	0	6
BRK	85	288	0
BRK	85	288	7
STR	86	0	1
SCR	86	0	1	96	144	1
SXR	86	0	1	96	144	4
TAP	86	0	6
BRK	86	288	0
BRK	86	288	7
TAP	87	0	6
TAP	87	24	6
TAP	87	72	0
TAP	87	96	0
TAP	87	144	4
TAP	87	168	4
TAP	87	216	2
TAP	87	240	2
TAP	87	288	3
TAP	87	288	7
TAP	87	336	1
TAP	87	336	5
TAP	88	0	0
TAP	88	0	7
TAP	88	48	1
TAP	88	48	6
TAP	88	96	2
TAP	88	96	5
TAP	88	144	3
TAP	88	144	4
STR	88	168	3
SI_	88	168	3	96	48	7
TAP	88	168	4
BRK	88	288	0

T_REC_TAP	444
T_REC_BRK	90
T_REC_XTP	0
T_REC_HLD	63
T_REC_XHO	0
T_REC_STR	75
T_REC_BST	9
T_REC_XST	0
T_REC_TTP	0
T_REC_THO	0
T_REC_SLD	90
T_REC_ALL	771
T_NUM_TAP	519
T_NUM_BRK	99
T_NUM_HLD	63
T_NUM_SLD	90
T_NUM_ALL	771
T_JUDGE_TAP	618
T_JUDGE_HLD	136
T_JUDGE_SLD	90
T_JUDGE_ALL	844
TTM_EACHPAIRS	174
TTM_SCR_TAP	259500
TTM_SCR_BRK	257400
TTM_SCR_HLD	63000
TTM_SCR_SLD	135000
TTM_SCR_ALL	714900
TTM_SCR_S	683850
TTM_SCR_SS	705000
TTM_RAT_ACV	10140

