VERSION	0.00.00	1.03.00
FES_MODE	0
BPM_DEF	175.000	175.000	175.000	175.000
MET_DEF	4	4
RESOLUTION	384
CLK_DEF	384
COMPATIBLE_CODE	MA2

BPM	0	0	175.000
MET	0	0	4	4

HLD	1	0	3	192
HLD	1	0	4	192
HLD	2	0	3	192
HLD	2	0	4	192
HLD	3	0	3	96
HLD	3	0	4	96
HLD	3	192	3	96
HLD	3	192	4	96
HLD	4	0	3	48
HLD	4	0	4	48
HLD	4	96	3	48
HLD	4	96	4	48
BRK	4	240	7
BRK	4	288	7
HLD	5	0	2	192
HLD	5	0	3	192
HLD	6	0	4	192
HLD	6	0	5	192
HLD	7	0	2	96
HLD	7	0	4	96
HLD	7	192	3	96
HLD	7	192	5	96
HLD	8	0	3	48
HLD	8	0	4	48
HLD	8	96	3	48
HLD	8	96	4	48
BRK	9	0	0
BST	9	0	1
SXR	9	0	1	96	288	3
TAP	10	48	7
TAP	10	96	7
TAP	10	144	0
TAP	10	192	0
BRK	11	0	0
BST	11	0	1
SXR	11	0	1	96	288	4
TAP	12	48	7
TAP	12	96	6
TAP	12	144	0
TAP	12	192	1
TAP	12	288	2
STR	12	288	3
SI_	12	288	3	96	48	0
TAP	13	96	6
STR	13	96	7
SI_	13	96	7	96	48	4
TAP	13	288	2
TAP	13	288	6
STR	14	0	3
SCL	14	0	3	96	96	0
STR	14	0	7
SCL	14	0	7	96	96	4
TAP	14	288	2
TAP	14	288	5
BST	15	0	6
SI_	15	0	6	96	48	1
BRK	15	0	7
BST	15	192	2
SI_	15	192	2	96	48	5
BRK	15	192	3
HLD	16	0	0	192
HLD	16	0	7	192
BRK	16	240	0
BRK	16	240	7
BRK	16	288	0
BRK	16	288	7
TAP	17	0	2
TAP	17	0	3
TAP	17	96	1
TAP	17	96	5
STR	17	192	2
SI_	17	192	2	96	48	0
STR	17	192	3
SI_	17	192	3	96	48	6
TAP	18	0	4
TAP	18	0	5
TAP	18	96	2
TAP	18	96	6
STR	18	192	4
SI_	18	192	4	96	48	1
STR	18	192	5
SI_	18	192	5	96	48	7
TAP	19	0	2
TAP	19	0	3
TAP	19	96	1
TAP	19	96	5
STR	19	192	2
SI_	19	192	2	96	48	0
STR	19	192	3
SI_	19	192	3	96	48	6
HLD	20	0	7	96
HLD	20	96	5	96
HLD	20	192	3	96
TAP	20	288	1
TAP	21	0	4
TAP	21	0	5
TAP	21	96	2
TAP	21	96	6
STR	21	192	4
SI_	21	192	4	96	48	1
STR	21	192	5
SI_	21	192	5	96	48	7
TAP	22	0	2
TAP	22	0	3
TAP	22	96	1
TAP	22	96	5
STR	22	192	2
SI_	22	192	2	96	48	0
STR	22	192	3
SI_	22	192	3	96	48	6
TAP	23	0	4
TAP	23	0	5
TAP	23	96	2
TAP	23	96	6
STR	23	192	4
SI_	23	192	4	96	48	1
STR	23	192	5
SI_	23	192	5	96	48	7
TAP	24	0	0
TAP	24	48	0
TAP	24	96	6
TAP	24	144	6
TAP	24	192	1
TAP	24	240	1
BRK	24	288	7
TAP	25	0	4
TAP	25	0	5
TAP	25	96	1
TAP	25	96	7
STR	25	192	4
SI_	25	192	4	96	48	1
STR	25	192	5
SI_	25	192	5	96	48	7
TAP	26	0	2
TAP	26	0	3
TAP	26	96	0
TAP	26	96	6
STR	26	192	2
SI_	26	192	2	96	48	0
STR	26	192	3
SI_	26	192	3	96	48	6
TAP	27	0	4
TAP	27	0	5
TAP	27	96	1
TAP	27	96	7
STR	27	192	4
SI_	27	192	4	96	48	1
STR	27	192	5
SI_	27	192	5	96	48	7
HLD	28	0	0	96
HLD	28	96	2	96
HLD	28	192	4	96
TAP	28	288	6
TAP	29	0	2
TAP	29	0	3
TAP	29	96	0
TAP	29	96	6
STR	29	192	2
SI_	29	192	2	96	48	0
STR	29	192	3
SI_	29	192	3	96	48	6
TAP	30	0	4
TAP	30	0	5
TAP	30	96	2
TAP	30	96	7
STR	30	192	4
SI_	30	192	4	96	48	1
STR	30	192	5
SI_	30	192	5	96	48	7
HLD	31	0	5	72
HLD	31	72	4	72
HLD	31	144	3	72
HLD	31	216	2	72
BST	31	288	1
SXR	31	288	1	96	192	3
BRK	32	288	0
BRK	32	288	5
HLD	33	0	7	96
HLD	33	96	5	96
STR	33	192	4
SI_	33	192	4	96	48	7
HLD	34	0	0	96
HLD	34	96	2	96
STR	34	192	3
SI_	34	192	3	96	48	0
TAP	35	0	6
TAP	35	0	7
TAP	35	96	0
TAP	35	96	7
HLD	35	192	0	96
HLD	35	192	1	96
TAP	36	0	0
TAP	36	0	7
STR	36	96	3
SI_	36	96	3	96	48	0
STR	36	96	4
SI_	36	96	4	96	48	7
BRK	36	288	1
BRK	36	288	6
TAP	37	0	2
TAP	37	48	2
STR	37	96	3
SCL	37	96	3	96	96	0
SCR	37	96	3	96	96	6
TAP	38	0	3
TAP	38	0	4
STR	38	96	5
SI_	38	96	5	96	96	2
STR	38	96	6
SI_	38	96	6	96	96	1
HLD	39	0	2	192
TAP	39	0	5
TAP	39	96	0
HLD	39	192	5	288
TAP	39	288	7
HLD	40	0	2	96
BRK	40	144	2
BRK	40	144	5
BRK	40	192	2
BRK	40	192	5
BRK	40	288	0
BRK	40	288	7
HLD	41	0	4	96
STR	41	0	6
SCR	41	0	6	96	96	1
STR	41	288	3
SI_	41	288	3	96	48	7
BRK	41	288	7
STR	42	0	4
SI_	42	0	4	96	48	6
STR	42	96	2
SI_	42	96	2	96	48	0
BRK	42	288	6
STR	43	0	2
SI_	43	0	2	96	48	4
STR	43	0	7
SI_	43	0	7	96	48	5
STR	43	192	0
SI_	43	192	0	96	48	5
STR	43	192	1
SI_	43	192	1	96	48	4
BRK	44	0	0
BRK	44	0	1
BST	44	96	4
SI_	44	96	4	96	48	1
BST	44	96	5
SI_	44	96	5	96	48	0
BRK	44	288	2
BRK	44	288	7
TAP	45	0	0
STR	45	0	1
SI_	45	0	1	96	48	4
TAP	45	192	0
STR	45	192	1
SCR	45	192	1	96	48	4
TAP	46	0	6
TAP	46	0	7
TAP	46	96	0
STR	46	96	1
SSR	46	96	1	96	144	5
HLD	47	0	7	192
TAP	47	96	5
HLD	47	192	0	336
TAP	47	288	2
HLD	48	0	7	144
BRK	48	192	1
BRK	48	192	6
STR	49	0	4
SCR	49	0	4	96	192	7
STR	50	0	2
SCR	50	0	2	96	192	5
STR	51	0	0
SCR	51	0	0	96	192	3
STR	52	0	6
SCR	52	0	6	96	192	1
TAP	53	0	2
TAP	53	96	1
TAP	53	96	3
TAP	53	192	5
TAP	53	288	4
TAP	53	288	6
TAP	54	0	0
TAP	54	0	1
TAP	54	96	2
TAP	54	96	7
TAP	54	192	6
TAP	54	192	7
TAP	54	288	0
TAP	54	288	5
BRK	55	0	0
TAP	55	96	3
TAP	55	96	4
BRK	55	192	1
TAP	55	288	3
TAP	55	288	4
BST	56	0	1
SXR	56	0	1	96	192	3
BRK	56	0	6
STR	57	0	0
SCR	57	0	0	96	48	3
STR	57	0	4
SCR	57	0	4	96	48	7
STR	57	192	3
SCL	57	192	3	96	48	0
STR	57	192	7
SCL	57	192	7	96	48	4
TAP	58	0	3
TAP	58	48	3
TAP	58	96	2
TAP	58	144	2
BRK	58	192	1
TAP	58	192	4
TAP	58	288	4
TAP	58	288	5
STR	59	0	3
SCL	59	0	3	96	48	0
STR	59	0	7
SCL	59	0	7	96	48	4
STR	59	192	0
SCR	59	192	0	96	48	3
STR	59	192	4
SCR	59	192	4	96	48	7
TAP	60	0	4
TAP	60	48	4
TAP	60	96	5
TAP	60	144	5
TAP	60	192	3
BRK	60	192	6
TAP	60	288	2
TAP	60	288	3
BST	61	0	0
SXL	61	0	0	96	192	3
BST	61	0	7
SXR	61	0	7	96	192	4
TAP	62	0	3
TAP	62	0	4
TAP	62	96	2
TAP	62	96	5
STR	62	192	1
SI_	62	192	1	96	48	4
STR	62	192	6
SI_	62	192	6	96	48	3
BST	63	0	3
SI_	63	0	3	96	48	1
BST	63	0	4
SI_	63	0	4	96	48	1
BST	63	192	3
SI_	63	192	3	96	48	6
BST	63	192	4
SI_	63	192	4	96	48	6
BST	64	0	0
SI_	64	0	0	96	48	4
BST	64	0	7
SI_	64	0	7	96	48	3
BRK	64	192	1
BRK	64	192	6
HLD	65	0	6	96
HLD	65	96	4	96
HLD	65	192	3	96
HLD	65	288	1	96
TAP	66	0	0
TAP	66	48	0
TAP	66	96	1
TAP	66	144	1
TAP	66	192	2
BRK	66	192	7
TAP	66	288	3
TAP	66	288	4
HLD	67	0	1	96
HLD	67	96	3	96
HLD	67	192	4	96
HLD	67	288	6	96
TAP	68	0	7
TAP	68	48	7
TAP	68	96	6
TAP	68	144	6
BRK	68	192	0
TAP	68	192	5
BST	68	288	3
SCL	68	288	3	96	96	0
BST	68	288	4
SCR	68	288	4	96	96	7
HLD	69	192	5	192
TAP	69	288	4
HLD	70	0	2	96
TAP	70	96	3
TAP	70	192	3
TAP	70	192	4
TAP	70	288	1
TAP	70	288	6
TAP	71	0	6
TAP	71	0	7
BRK	71	96	5
BRK	71	96	7
TAP	71	192	0
TAP	71	192	1
BRK	71	288	0
BRK	71	288	2
TAP	72	0	3
TAP	72	0	4
STR	72	96	0
SI_	72	96	0	96	48	5
STR	72	96	1
SI_	72	96	1	96	48	4
BRK	72	288	3
BRK	72	288	6
BST	73	0	2
SI_	73	0	2	96	48	0
STR	73	0	3
SI_	73	0	3	96	48	6
STR	73	192	2
SCL	73	192	2	96	48	0
BST	73	192	3
SCR	73	192	3	96	48	6
BST	74	0	4
SI_	74	0	4	96	48	1
STR	74	0	5
SI_	74	0	5	96	48	7
STR	74	192	4
SCL	74	192	4	96	48	1
BST	74	192	5
SCR	74	192	5	96	48	7
BST	75	0	2
SI_	75	0	2	96	48	0
STR	75	0	3
SI_	75	0	3	96	48	6
STR	75	192	2
SCL	75	192	2	96	48	0
BST	75	192	3
SCR	75	192	3	96	48	6
HLD	76	0	2	48
HLD	76	0	3	48
BRK	76	96	3
BRK	76	96	4
HLD	76	192	4	48
HLD	76	192	5	48
BRK	76	288	3
BRK	76	288	4
STR	77	0	4
SI_	77	0	4	96	48	1
BST	77	0	5
SI_	77	0	5	96	48	7
BST	77	192	4
SCL	77	192	4	96	48	1
STR	77	192	5
SCR	77	192	5	96	48	7
STR	78	0	2
SI_	78	0	2	96	48	0
BST	78	0	3
SI_	78	0	3	96	48	6
BST	78	192	2
SCL	78	192	2	96	48	0
STR	78	192	3
SCR	78	192	3	96	48	6
STR	79	0	4
SI_	79	0	4	96	48	1
BST	79	0	5
SI_	79	0	5	96	48	7
BST	79	192	4
SCL	79	192	4	96	48	1
STR	79	192	5
SCR	79	192	5	96	48	7
HLD	80	0	1	48
HLD	80	0	3	48
BRK	80	96	3
BRK	80	96	4
HLD	80	192	4	48
HLD	80	192	6	48
BRK	80	288	3
BRK	80	288	4
BST	81	0	2
SI_	81	0	2	96	48	0
STR	81	0	3
SI_	81	0	3	96	48	7
STR	81	192	2
SI_	81	192	2	96	48	6
BST	81	192	3
SI_	81	192	3	96	48	5
BST	82	0	2
SI_	82	0	2	96	48	0
STR	82	0	3
SI_	82	0	3	96	48	7
STR	82	192	2
SI_	82	192	2	96	48	6
BST	82	192	3
SI_	82	192	3	96	48	5
BST	83	0	2
SI_	83	0	2	96	48	0
STR	83	0	3
SI_	83	0	3	96	48	7
TAP	83	192	2
TAP	83	192	3
TAP	83	288	0
TAP	83	288	5
TAP	84	0	1
TAP	84	0	6
TAP	84	48	1
TAP	84	48	6
TAP	84	96	1
TAP	84	96	6
BRK	84	192	1
BRK	84	192	6
BRK	84	240	1
BRK	84	240	6
BRK	84	288	1
BRK	84	288	6
STR	85	0	4
SI_	85	0	4	96	48	0
BST	85	0	5
SI_	85	0	5	96	48	7
BST	85	192	4
SI_	85	192	4	96	48	2
STR	85	192	5
SI_	85	192	5	96	48	1
STR	86	0	4
SI_	86	0	4	96	48	0
BST	86	0	5
SI_	86	0	5	96	48	7
TAP	86	192	4
TAP	86	192	5
TAP	86	288	3
TAP	86	288	6
HLD	87	0	5	72
HLD	87	72	6	72
HLD	87	144	7	72
HLD	87	216	0	72
BST	87	288	1
SXR	87	288	1	96	192	4
BRK	88	288	2
BRK	88	288	7

T_REC_TAP	160
T_REC_BRK	60
T_REC_XTP	0
T_REC_HLD	71
T_REC_XHO	0
T_REC_STR	80
T_REC_BST	39
T_REC_XST	0
T_REC_TTP	0
T_REC_THO	0
T_REC_SLD	120
T_REC_ALL	530
T_NUM_TAP	240
T_NUM_BRK	99
T_NUM_HLD	71
T_NUM_SLD	120
T_NUM_ALL	530
T_JUDGE_TAP	339
T_JUDGE_HLD	162
T_JUDGE_SLD	120
T_JUDGE_ALL	621
TTM_EACHPAIRS	159
TTM_SCR_TAP	120000
TTM_SCR_BRK	257400
TTM_SCR_HLD	71000
TTM_SCR_SLD	180000
TTM_SCR_ALL	628400
TTM_SCR_S	599950
TTM_SCR_SS	618500
TTM_RAT_ACV	10160

