VERSION	0.00.00	1.03.00
FES_MODE	0
BPM_DEF	175.000	175.000	175.000	175.000
MET_DEF	4	4
RESOLUTION	384
CLK_DEF	384
COMPATIBLE_CODE	MA2

BPM	0	0	175.000
MET	0	0	4	4

TAP	1	0	6
TAP	1	96	6
TAP	1	192	7
TAP	2	0	1
TAP	2	96	1
TAP	2	192	0
TAP	3	0	6
TAP	3	96	7
TAP	3	192	1
TAP	3	288	0
TAP	4	0	0
TAP	4	0	7
TAP	4	192	1
TAP	4	192	6
TAP	5	0	2
TAP	5	96	2
TAP	5	192	3
TAP	6	0	5
TAP	6	96	5
TAP	6	192	4
TAP	7	0	2
TAP	7	96	3
TAP	7	192	5
STR	7	288	4
SUL	7	288	4	96	216	7
STR	9	0	1
SI_	9	0	1	96	240	6
STR	11	0	5
SI_	11	0	5	96	240	2
TAP	13	0	0
TAP	13	0	1
TAP	13	192	6
TAP	13	192	7
STR	14	0	0
SI_	14	0	0	96	144	3
STR	14	0	7
SI_	14	0	7	96	144	4
TAP	15	0	4
TAP	15	0	5
TAP	15	192	2
TAP	15	192	3
STR	16	0	3
SI_	16	0	3	96	144	0
STR	16	0	4
SI_	16	0	4	96	144	7
HLD	17	0	1	96
TAP	17	96	0
TAP	17	192	2
TAP	17	192	7
HLD	18	0	6	96
TAP	18	96	7
TAP	18	192	0
TAP	18	192	5
HLD	19	0	0	96
TAP	19	96	7
TAP	19	192	1
TAP	19	192	6
TAP	20	0	6
TAP	20	96	6
TAP	20	96	7
TAP	20	192	1
TAP	20	288	0
TAP	20	288	1
HLD	21	0	6	96
TAP	21	96	7
TAP	21	192	0
TAP	21	192	5
HLD	22	0	1	96
TAP	22	96	0
TAP	22	192	2
TAP	22	192	7
HLD	23	0	7	96
TAP	23	96	0
TAP	23	192	1
TAP	23	192	6
STR	24	0	0
SI_	24	0	0	96	144	3
STR	24	0	7
SI_	24	0	7	96	144	4
HLD	25	0	2	96
TAP	25	96	3
TAP	25	192	1
TAP	25	192	4
HLD	26	0	5	96
TAP	26	96	4
TAP	26	192	3
TAP	26	192	6
HLD	27	0	3	96
TAP	27	96	4
TAP	27	192	2
TAP	27	192	5
TAP	28	0	5
TAP	28	96	4
TAP	28	96	5
TAP	28	192	2
TAP	28	288	2
TAP	28	288	3
HLD	29	0	5	96
TAP	29	96	4
TAP	29	192	3
TAP	29	192	6
HLD	30	0	2	96
TAP	30	96	3
TAP	30	192	1
TAP	30	192	4
TAP	31	0	4
TAP	31	96	3
TAP	31	192	3
TAP	31	192	4
STR	31	288	3
SI_	31	288	3	96	144	0
TAP	31	288	4
BRK	32	288	0
HLD	33	0	1	192
TAP	33	96	0
TAP	33	192	0
HLD	34	0	2	192
TAP	34	96	3
TAP	34	192	3
HLD	35	0	4	96
HLD	35	0	5	96
HLD	35	192	2	96
HLD	35	192	3	96
STR	36	0	3
SI_	36	0	3	96	144	0
STR	36	0	4
SI_	36	0	4	96	144	7
HLD	37	0	6	192
TAP	37	96	7
TAP	37	192	7
HLD	38	0	5	192
TAP	38	96	4
TAP	38	192	4
HLD	39	0	2	96
TAP	39	96	3
HLD	39	192	5	96
TAP	39	288	4
TAP	40	0	3
TAP	40	0	4
TAP	40	96	3
TAP	40	96	4
TAP	40	192	2
TAP	40	192	5
HLD	41	0	2	192
TAP	41	96	3
TAP	41	192	3
HLD	42	0	5	192
TAP	42	96	4
TAP	42	192	4
TAP	43	0	2
TAP	43	96	2
TAP	43	96	3
TAP	43	192	5
STR	43	288	4
SI_	43	288	4	96	192	0
STR	43	288	5
SI_	43	288	5	96	192	0
STR	45	0	1
SI_	45	0	1	96	144	5
TAP	46	0	6
TAP	46	96	7
TAP	46	192	0
HLD	47	0	0	96
HLD	47	0	1	96
HLD	47	192	6	96
HLD	47	192	7	96
STR	48	0	0
SI_	48	0	0	96	144	3
STR	48	0	7
SI_	48	0	7	96	144	4
HLD	49	0	4	384
HLD	50	0	3	384
HLD	51	0	2	384
HLD	52	0	1	384
TAP	53	0	0
TAP	53	192	7
TAP	54	0	0
TAP	54	0	7
TAP	54	192	0
TAP	54	192	7
BRK	55	0	0
BST	55	192	1
SXR	55	192	1	96	336	3
TAP	57	0	2
TAP	57	96	2
TAP	57	96	3
TAP	57	192	5
STR	57	288	4
SUL	57	288	4	96	240	3
TAP	57	288	5
TAP	59	0	5
TAP	59	96	4
TAP	59	96	5
TAP	59	192	2
TAP	59	288	2
STR	59	288	3
SUR	59	288	3	96	240	4
TAP	61	0	4
TAP	61	0	5
TAP	61	96	4
TAP	61	96	5
TAP	61	192	2
TAP	61	192	3
TAP	61	288	2
TAP	61	288	3
TAP	62	0	6
TAP	62	0	7
TAP	62	96	6
TAP	62	96	7
TAP	62	192	0
TAP	62	192	1
TAP	62	288	0
TAP	62	288	1
STR	63	0	0
SI_	63	0	0	96	144	4
STR	63	0	7
SI_	63	0	7	96	144	3
TAP	64	0	3
TAP	64	0	4
TAP	64	96	3
TAP	64	96	4
BRK	64	192	1
BRK	64	192	6
TAP	65	0	2
TAP	65	96	1
TAP	65	96	3
TAP	65	192	5
TAP	65	288	4
TAP	65	288	6
TAP	66	0	3
TAP	66	96	2
TAP	66	96	4
TAP	66	192	1
TAP	66	192	5
TAP	67	0	1
TAP	67	96	0
TAP	67	96	2
TAP	67	192	6
TAP	67	288	5
TAP	67	288	7
TAP	68	0	0
TAP	68	96	1
TAP	68	96	7
TAP	68	192	2
TAP	68	192	6
TAP	69	0	2
TAP	69	96	2
TAP	69	96	3
TAP	69	192	5
TAP	69	288	4
TAP	69	288	5
TAP	70	0	3
TAP	70	0	4
TAP	70	96	3
TAP	70	96	4
TAP	70	192	2
TAP	70	192	5
HLD	71	0	4	96
HLD	71	0	5	96
HLD	71	192	2	96
HLD	71	192	3	96
TAP	72	0	3
TAP	72	0	4
TAP	72	96	3
TAP	72	96	4
BRK	72	192	2
BRK	72	192	5
HLD	73	0	6	96
TAP	73	96	7
TAP	73	192	0
TAP	73	192	5
HLD	74	0	1	96
TAP	74	96	0
TAP	74	192	2
TAP	74	192	7
HLD	75	0	7	96
TAP	75	96	0
TAP	75	192	1
TAP	75	192	6
HLD	76	0	0	96
HLD	76	0	1	96
HLD	76	192	6	96
HLD	76	192	7	96
HLD	77	0	1	96
TAP	77	96	0
TAP	77	192	2
TAP	77	192	7
HLD	78	0	6	96
TAP	78	96	7
TAP	78	192	0
TAP	78	192	5
HLD	79	0	0	96
TAP	79	96	7
BST	79	192	1
SXR	79	192	1	96	384	3
TAP	79	192	6
HLD	81	0	5	96
TAP	81	96	4
TAP	81	192	3
TAP	81	192	6
HLD	82	0	2	96
TAP	82	96	3
TAP	82	192	1
TAP	82	192	4
HLD	83	0	1	96
TAP	83	96	0
TAP	83	192	2
TAP	83	192	7
TAP	84	0	6
TAP	84	96	6
TAP	84	96	7
TAP	84	192	5
TAP	84	288	4
TAP	84	288	5
HLD	85	0	2	96
TAP	85	96	3
TAP	85	192	1
TAP	85	192	4
HLD	86	0	5	96
TAP	86	96	4
TAP	86	192	3
TAP	86	192	6
TAP	87	0	3
TAP	87	96	4
TAP	87	192	3
TAP	87	192	4
TAP	87	288	3
STR	87	288	4
SI_	87	288	4	96	144	7
BRK	88	288	7

T_REC_TAP	225
T_REC_BRK	7
T_REC_XTP	0
T_REC_HLD	50
T_REC_XHO	0
T_REC_STR	22
T_REC_BST	2
T_REC_XST	0
T_REC_TTP	0
T_REC_THO	0
T_REC_SLD	24
T_REC_ALL	330
T_NUM_TAP	247
T_NUM_BRK	9
T_NUM_HLD	50
T_NUM_SLD	24
T_NUM_ALL	330
T_JUDGE_TAP	256
T_JUDGE_HLD	136
T_JUDGE_SLD	24
T_JUDGE_ALL	416
TTM_EACHPAIRS	90
TTM_SCR_TAP	123500
TTM_SCR_BRK	23400
TTM_SCR_HLD	50000
TTM_SCR_SLD	36000
TTM_SCR_ALL	232900
TTM_SCR_S	225050
TTM_SCR_SS	232000
TTM_RAT_ACV	10038

