VERSION	0.00.00	1.03.00
FES_MODE	0
BPM_DEF	175.000	175.000	175.000	175.000
MET_DEF	4	4
RESOLUTION	384
CLK_DEF	384
COMPATIBLE_CODE	MA2

BPM	0	0	175.000
MET	0	0	4	4

TAP	1	0	3
TAP	2	0	4
TAP	3	0	3
TAP	3	192	4
TAP	4	0	3
TAP	5	0	2
TAP	6	0	1
TAP	7	0	0
TAP	7	192	7
TAP	8	0	0
TAP	8	0	7
STR	9	0	7
SI_	9	0	7	96	288	3
STR	11	0	0
SI_	11	0	0	96	288	4
HLD	13	0	7	192
HLD	14	0	0	192
TAP	15	0	0
TAP	15	0	7
TAP	15	192	0
TAP	15	192	7
TAP	16	0	0
TAP	16	0	7
BRK	16	192	0
BRK	16	192	7
TAP	17	0	1
TAP	17	192	1
TAP	18	0	2
TAP	18	192	2
TAP	19	0	3
TAP	19	192	3
HLD	20	0	4	192
TAP	21	0	5
TAP	21	192	5
TAP	22	0	6
TAP	22	192	6
TAP	23	0	7
TAP	23	192	7
HLD	24	0	0	192
TAP	25	0	7
TAP	25	192	7
TAP	26	0	6
TAP	26	192	6
TAP	27	0	5
TAP	27	192	5
HLD	28	0	4	192
TAP	29	0	3
TAP	29	192	3
TAP	30	0	2
TAP	30	192	2
TAP	31	0	1
TAP	31	192	1
TAP	32	0	0
BRK	32	192	0
TAP	33	0	7
TAP	33	96	7
TAP	33	192	7
TAP	34	0	0
TAP	34	96	0
TAP	34	192	0
TAP	35	0	1
TAP	35	96	1
TAP	35	192	1
TAP	36	0	2
TAP	36	96	2
TAP	36	192	2
TAP	36	192	3
TAP	37	0	3
TAP	37	96	3
TAP	37	192	3
TAP	38	0	4
TAP	38	96	4
TAP	38	192	4
TAP	39	0	5
TAP	39	96	5
TAP	39	192	5
TAP	40	0	6
TAP	40	96	6
TAP	40	192	6
TAP	40	192	7
TAP	41	0	0
TAP	41	96	0
TAP	41	192	0
TAP	42	0	7
TAP	42	96	7
TAP	42	192	7
TAP	43	0	0
TAP	43	0	7
TAP	43	192	0
TAP	43	192	7
TAP	44	0	0
TAP	44	0	7
TAP	44	96	0
TAP	44	96	7
TAP	44	192	0
TAP	44	192	7
STR	45	0	0
SI_	45	0	0	96	288	4
TAP	47	0	3
TAP	47	192	3
TAP	48	0	4
TAP	48	96	4
TAP	48	192	4
HLD	49	0	5	384
HLD	51	0	6	384
HLD	53	0	7	384
BRK	55	0	0
BRK	55	192	1
BRK	56	0	0
BRK	56	0	7
TAP	57	0	1
TAP	57	96	1
TAP	57	192	2
TAP	57	288	2
TAP	58	0	3
TAP	58	96	3
TAP	58	192	3
TAP	59	0	4
TAP	59	96	4
TAP	59	192	5
TAP	59	288	5
TAP	60	0	6
TAP	60	96	6
TAP	60	192	6
TAP	60	192	7
TAP	61	0	7
TAP	61	96	7
TAP	61	192	0
TAP	61	288	0
TAP	62	0	1
TAP	62	96	1
TAP	62	192	1
TAP	63	0	2
TAP	63	96	2
TAP	63	192	3
TAP	63	288	3
TAP	64	0	4
TAP	64	96	4
TAP	64	192	3
TAP	64	192	4
TAP	65	0	2
TAP	65	96	2
TAP	65	192	1
TAP	65	288	1
TAP	66	0	0
TAP	66	0	7
TAP	66	96	0
TAP	66	96	7
TAP	66	192	0
TAP	66	192	7
TAP	67	0	6
TAP	67	96	6
TAP	67	192	5
TAP	67	288	5
TAP	68	0	3
TAP	68	0	4
TAP	68	96	3
TAP	68	96	4
TAP	68	192	3
TAP	68	192	4
TAP	69	0	3
TAP	69	96	3
TAP	69	192	2
TAP	69	288	2
TAP	70	0	0
TAP	70	0	1
TAP	70	96	0
TAP	70	96	1
TAP	70	192	0
TAP	70	192	1
TAP	71	0	7
TAP	71	96	7
TAP	71	192	7
TAP	72	0	0
TAP	72	96	0
BRK	72	192	0
TAP	73	0	7
TAP	73	96	7
TAP	73	192	0
TAP	73	192	6
TAP	74	0	7
TAP	74	96	7
TAP	74	192	0
TAP	74	192	6
TAP	75	0	7
TAP	75	96	7
TAP	75	192	0
TAP	75	192	6
TAP	76	0	5
TAP	76	96	5
TAP	76	192	4
TAP	76	288	4
TAP	77	0	3
TAP	77	96	3
TAP	77	192	2
TAP	77	192	4
TAP	78	0	3
TAP	78	96	3
TAP	78	192	2
TAP	78	192	4
TAP	79	0	3
TAP	79	96	3
TAP	79	192	2
TAP	79	192	4
TAP	80	0	1
TAP	80	96	1
TAP	80	192	0
TAP	80	288	0
TAP	81	0	7
TAP	81	96	7
TAP	81	192	0
TAP	81	192	6
TAP	82	0	7
TAP	82	96	7
TAP	82	192	0
TAP	82	192	6
TAP	83	0	7
TAP	83	96	7
TAP	83	192	0
TAP	83	192	6
TAP	84	0	5
TAP	84	96	5
TAP	84	192	4
TAP	84	288	4
TAP	85	0	3
TAP	85	96	3
TAP	85	192	2
TAP	85	192	4
TAP	86	0	3
TAP	86	96	3
TAP	86	192	2
TAP	86	192	4
TAP	87	0	1
TAP	87	192	1
TAP	88	0	0
TAP	88	96	0
TAP	88	192	0
BRK	88	288	0

T_REC_TAP	215
T_REC_BRK	9
T_REC_XTP	0
T_REC_HLD	8
T_REC_XHO	0
T_REC_STR	3
T_REC_BST	0
T_REC_XST	0
T_REC_TTP	0
T_REC_THO	0
T_REC_SLD	3
T_REC_ALL	238
T_NUM_TAP	218
T_NUM_BRK	9
T_NUM_HLD	8
T_NUM_SLD	3
T_NUM_ALL	238
T_JUDGE_TAP	227
T_JUDGE_HLD	44
T_JUDGE_SLD	3
T_JUDGE_ALL	274
TTM_EACHPAIRS	35
TTM_SCR_TAP	109000
TTM_SCR_BRK	23400
TTM_SCR_HLD	8000
TTM_SCR_SLD	4500
TTM_SCR_ALL	144900
TTM_SCR_S	139700
TTM_SCR_SS	144000
TTM_RAT_ACV	10062

