VERSION	0.00.00	1.03.00
FES_MODE	0
BPM_DEF	200.000	200.000	200.000	200.000
MET_DEF	4	4
RESOLUTION	384
CLK_DEF	384
COMPATIBLE_CODE	MA2

BPM	0	0	200.000
MET	0	0	4	4
MET	53	0	4	3
MET	65	0	4	4

HLD	1	0	0	1152
TAP	1	96	1
TAP	1	288	2
TAP	2	96	3
TAP	2	288	4
TAP	3	96	5
TAP	3	288	6
TAP	4	0	7
TAP	4	96	0
TAP	4	96	1
TAP	4	192	6
TAP	4	192	7
TAP	4	288	1
TAP	4	288	6
STR	5	0	0
SLL	5	0	0	96	48	1
STR	5	0	2
SI_	5	0	2	96	48	5
STR	5	192	4
SLL	5	192	4	96	48	5
STR	5	192	6
SI_	5	192	6	96	48	1
STR	6	0	0
SLL	6	0	0	96	48	1
STR	6	0	2
SI_	6	0	2	96	48	5
STR	6	192	2
SI_	6	192	2	96	48	0
STR	6	192	3
SI_	6	192	3	96	48	6
TAP	6	288	2
TAP	6	288	3
STR	7	0	5
SI_	7	0	5	96	48	2
STR	7	0	7
SLR	7	0	7	96	48	6
STR	7	192	1
SI_	7	192	1	96	48	6
STR	7	192	3
SLR	7	192	3	96	48	2
STR	8	0	5
SI_	8	0	5	96	48	2
STR	8	0	7
SLR	8	0	7	96	48	6
STR	8	192	4
SI_	8	192	4	96	48	1
STR	8	192	5
SI_	8	192	5	96	48	7
TAP	8	288	4
TAP	8	288	5
STR	9	0	0
SLL	9	0	0	96	48	1
STR	9	0	2
SI_	9	0	2	96	48	5
STR	9	192	4
SLL	9	192	4	96	48	5
STR	9	192	6
SI_	9	192	6	96	48	1
STR	10	0	0
SLL	10	0	0	96	48	1
STR	10	0	2
SI_	10	0	2	96	48	5
STR	10	192	2
SI_	10	192	2	96	48	0
STR	10	192	3
SI_	10	192	3	96	48	6
TAP	10	288	2
TAP	10	288	3
STR	11	0	5
SI_	11	0	5	96	48	2
STR	11	0	7
SLR	11	0	7	96	48	6
TAP	11	48	5
TAP	11	48	7
STR	11	192	1
SI_	11	192	1	96	48	6
STR	11	192	3
SLR	11	192	3	96	48	2
TAP	11	240	1
TAP	11	240	3
TAP	12	0	7
TAP	12	48	6
TAP	12	96	0
TAP	12	144	1
TAP	12	192	2
TAP	12	192	3
STR	12	288	4
SI_	12	288	4	96	48	1
STR	12	288	5
SI_	12	288	5	96	48	0
TAP	13	0	4
TAP	13	0	5
HLD	13	192	6	48
HLD	13	192	7	48
HLD	13	288	2	48
HLD	13	288	3	48
TAP	14	0	1
TAP	14	0	4
TAP	14	48	2
TAP	14	96	3
TAP	14	96	6
TAP	14	144	7
TAP	14	192	0
TAP	14	192	1
STR	14	288	2
SI_	14	288	2	96	48	7
STR	14	288	3
SI_	14	288	3	96	48	6
TAP	15	0	2
TAP	15	0	3
HLD	15	192	5	48
HLD	15	192	6	48
HLD	15	288	4	48
HLD	15	288	7	48
STR	16	0	0
SLL	16	0	0	96	96	1
STR	16	48	5
SI_	16	48	5	96	48	2
TAP	16	96	0
TAP	16	144	5
STR	16	288	2
SI_	16	288	2	96	48	7
STR	16	288	3
SI_	16	288	3	96	48	6
TAP	17	0	2
TAP	17	0	3
HLD	17	192	0	48
HLD	17	192	1	48
HLD	17	288	4	48
HLD	17	288	5	48
TAP	18	0	3
TAP	18	0	6
TAP	18	48	5
TAP	18	96	1
TAP	18	96	4
TAP	18	144	0
TAP	18	192	6
TAP	18	192	7
STR	18	288	4
SI_	18	288	4	96	48	1
STR	18	288	5
SI_	18	288	5	96	48	0
TAP	19	0	4
TAP	19	0	5
HLD	19	192	1	48
HLD	19	192	2	48
HLD	19	288	0	48
HLD	19	288	3	48
STR	20	0	7
SLR	20	0	7	96	96	6
STR	20	48	2
SI_	20	48	2	96	48	5
TAP	20	96	7
TAP	20	144	2
TAP	20	288	4
TAP	20	288	5
HLD	21	0	0	96
TAP	21	0	7
HLD	21	96	3	96
TAP	21	144	1
HLD	21	192	0	96
TAP	21	240	2
HLD	21	288	3	96
TAP	21	336	1
HLD	22	0	0	288
TAP	22	96	1
TAP	22	144	1
TAP	22	240	7
TAP	22	288	7
TAP	23	0	0
HLD	23	0	7	96
HLD	23	96	4	96
TAP	23	144	6
HLD	23	192	7	96
TAP	23	240	5
HLD	23	288	4	96
TAP	23	336	6
HLD	24	0	7	288
TAP	24	96	6
TAP	24	144	6
TAP	24	240	0
TAP	24	288	0
TAP	24	336	0
HLD	25	0	0	96
TAP	25	0	7
HLD	25	96	3	96
TAP	25	144	2
HLD	25	192	0	96
TAP	25	240	1
HLD	25	288	3	96
TAP	25	336	2
HLD	26	0	0	288
TAP	26	96	1
TAP	26	144	1
TAP	26	240	7
TAP	26	288	7
TAP	27	0	0
HLD	27	0	7	96
HLD	27	96	4	96
TAP	27	144	5
HLD	27	192	7	96
TAP	27	240	6
HLD	27	288	4	96
TAP	27	336	5
TAP	28	0	7
TAP	28	48	7
TAP	28	96	0
TAP	28	144	0
TAP	28	192	1
TAP	28	192	6
TAP	28	240	2
TAP	28	240	5
TAP	28	288	3
TAP	28	288	4
STR	29	0	7
SI_	29	0	7	96	48	2
TAP	29	48	1
TAP	29	96	7
TAP	29	144	6
STR	29	192	3
SI_	29	192	3	96	48	0
TAP	29	240	1
TAP	29	288	3
TAP	29	336	4
STR	30	0	7
SI_	30	0	7	96	48	4
TAP	30	48	3
STR	30	96	7
SI_	30	96	7	96	48	3
TAP	30	144	2
STR	30	192	7
SI_	30	192	7	96	48	2
TAP	30	240	1
TAP	30	288	7
TAP	30	336	0
STR	31	0	0
SI_	31	0	0	96	48	5
TAP	31	48	6
TAP	31	96	0
TAP	31	144	1
STR	31	192	4
SI_	31	192	4	96	48	7
TAP	31	240	6
TAP	31	288	4
TAP	31	336	3
STR	32	0	0
SI_	32	0	0	96	48	3
TAP	32	48	4
STR	32	96	0
SI_	32	96	0	96	48	4
TAP	32	144	5
STR	32	192	0
SI_	32	192	0	96	48	5
TAP	32	240	6
TAP	32	288	0
TAP	32	336	7
STR	33	0	7
SI_	33	0	7	96	48	2
TAP	33	48	1
TAP	33	96	7
TAP	33	144	6
STR	33	192	3
SI_	33	192	3	96	48	0
TAP	33	240	1
TAP	33	288	3
TAP	33	336	4
STR	34	0	7
SI_	34	0	7	96	48	4
TAP	34	48	3
STR	34	96	7
SI_	34	96	7	96	48	3
TAP	34	144	2
STR	34	192	7
SI_	34	192	7	96	48	2
TAP	34	240	1
TAP	34	288	7
TAP	34	336	0
STR	35	0	1
SI_	35	0	1	96	48	6
STR	35	0	3
SLR	35	0	3	96	48	2
TAP	35	48	1
TAP	35	48	3
STR	35	192	5
SI_	35	192	5	96	48	2
STR	35	192	7
SLR	35	192	7	96	48	6
TAP	35	240	5
TAP	35	240	7
TAP	36	0	0
TAP	36	48	1
TAP	36	96	7
TAP	36	144	6
TAP	36	192	4
TAP	36	192	5
STR	36	288	2
SI_	36	288	2	96	48	7
STR	36	288	3
SI_	36	288	3	96	48	6
TAP	37	0	2
TAP	37	0	3
HLD	37	192	4	48
HLD	37	192	5	48
HLD	37	288	0	48
HLD	37	288	4	48
STR	38	0	7
SLL	38	0	7	96	96	0
STR	38	48	4
SCL	38	48	4	96	48	1
TAP	38	96	7
TAP	38	144	4
STR	38	288	4
SI_	38	288	4	96	48	1
STR	38	288	5
SI_	38	288	5	96	48	0
TAP	39	0	4
TAP	39	0	5
HLD	39	192	2	48
HLD	39	192	3	48
HLD	39	288	3	48
HLD	39	288	7	48
TAP	40	0	0
TAP	40	0	1
TAP	40	96	0
TAP	40	96	1
TAP	40	192	1
TAP	40	192	2
TAP	40	240	2
TAP	40	240	3
TAP	40	288	3
TAP	40	288	4
TAP	40	336	4
TAP	40	336	5
STR	41	0	6
SI_	41	0	6	96	48	3
TAP	41	48	0
TAP	41	96	6
STR	41	192	1
SI_	41	192	1	96	48	4
TAP	41	240	7
TAP	41	288	1
STR	42	0	0
SLR	42	0	0	96	96	7
STR	42	48	3
SCR	42	48	3	96	48	6
TAP	42	96	0
TAP	42	144	3
TAP	42	288	2
TAP	42	288	3
TAP	43	0	6
TAP	43	0	7
TAP	43	48	6
TAP	43	48	7
TAP	43	96	0
TAP	43	96	5
TAP	43	144	0
TAP	43	144	5
STR	43	192	1
SCR	43	192	1	96	48	4
STR	43	192	4
SCR	43	192	4	96	48	7
TAP	43	288	1
TAP	43	288	4
TAP	44	0	0
TAP	44	0	1
TAP	44	48	0
TAP	44	48	1
TAP	44	96	2
STR	44	96	7
SCL	44	96	7	96	48	4
TAP	44	192	2
TAP	44	192	7
TAP	44	216	1
TAP	44	240	0
TAP	44	264	7
TAP	44	288	6
TAP	44	312	5
TAP	44	336	4
TAP	44	360	3
STR	45	0	2
SUL	45	0	2	96	48	6
STR	45	96	4
SUR	45	96	4	96	48	1
STR	45	192	2
SCL	45	192	2	96	96	5
HLD	45	288	4	192
TAP	46	96	3
TAP	46	240	0
TAP	46	288	1
TAP	46	288	7
STR	47	0	5
SUR	47	0	5	96	48	1
STR	47	96	3
SUL	47	96	3	96	48	6
STR	47	192	5
SCR	47	192	5	96	96	2
HLD	47	288	3	192
TAP	48	96	4
TAP	48	240	7
TAP	48	288	0
TAP	48	288	6
STR	49	0	2
SUL	49	0	2	96	48	6
STR	49	96	4
SUR	49	96	4	96	48	1
STR	49	192	2
SCL	49	192	2	96	96	5
HLD	49	288	4	192
TAP	50	96	3
TAP	50	240	0
TAP	50	288	1
TAP	50	288	7
TAP	51	0	2
TAP	51	0	3
TAP	51	48	3
TAP	51	48	4
TAP	51	96	4
TAP	51	96	5
TAP	51	144	5
TAP	51	144	6
TAP	51	192	5
TAP	51	192	7
TAP	51	240	4
TAP	51	240	6
TAP	51	288	3
TAP	51	288	5
TAP	51	336	2
TAP	51	336	4
TAP	52	0	0
TAP	52	0	3
TAP	52	48	1
TAP	52	48	4
TAP	52	96	2
TAP	52	96	5
TAP	52	144	3
TAP	52	144	6
TAP	52	192	0
TAP	52	192	4
TAP	52	240	3
TAP	52	240	7
TAP	52	288	2
TAP	52	288	6
TAP	52	336	1
TAP	52	336	5
HLD	53	0	0	48
TAP	53	0	4
HLD	53	96	0	48
TAP	53	96	4
TAP	53	144	5
HLD	53	192	0	48
TAP	53	192	6
STR	53	288	0
SI_	53	288	0	96	48	4
HLD	53	288	7	48
HLD	54	0	7	48
TAP	54	96	3
HLD	54	96	7	48
HLD	54	192	3	48
TAP	54	192	7
HLD	54	288	3	48
TAP	54	288	7
TAP	54	336	6
HLD	55	0	3	48
TAP	55	0	5
STR	55	96	3
SI_	55	96	3	96	48	1
HLD	55	96	5	48
TAP	55	192	3
HLD	55	192	4	48
TAP	55	288	0
HLD	55	288	5	48
HLD	56	0	0	48
TAP	56	0	5
HLD	56	96	0	48
TAP	56	96	5
TAP	56	144	4
HLD	56	192	0	48
TAP	56	192	3
TAP	56	288	0
HLD	56	288	3	48
TAP	57	0	0
HLD	57	0	4	48
TAP	57	48	1
TAP	57	96	2
HLD	57	96	5	48
TAP	57	144	3
HLD	57	192	4	48
TAP	57	192	5
HLD	57	288	3	48
TAP	57	288	6
TAP	57	336	5
HLD	58	0	2	48
TAP	58	0	4
TAP	58	96	2
HLD	58	96	4	48
TAP	58	192	1
HLD	58	192	5	48
TAP	58	240	0
TAP	58	288	1
HLD	58	288	6	48
TAP	58	336	2
TAP	59	0	3
HLD	59	0	7	48
TAP	59	96	3
HLD	59	96	7	48
TAP	59	144	2
TAP	59	192	1
HLD	59	192	7	48
HLD	59	288	0	48
STR	59	288	7
SI_	59	288	7	96	48	3
HLD	60	0	0	48
HLD	60	96	0	48
TAP	60	96	4
TAP	60	192	0
HLD	60	192	4	48
TAP	60	288	0
HLD	60	288	4	48
TAP	60	336	1
TAP	61	0	2
HLD	61	0	4	48
HLD	61	96	2	48
STR	61	96	4
SI_	61	96	4	96	48	6
HLD	61	192	3	48
TAP	61	192	4
HLD	61	288	2	48
TAP	61	288	7
TAP	62	0	2
HLD	62	0	7	48
TAP	62	96	2
HLD	62	96	7	48
TAP	62	144	3
TAP	62	192	4
HLD	62	192	7	48
HLD	62	288	4	48
TAP	62	288	7
HLD	63	0	3	48
TAP	63	0	7
TAP	63	48	6
HLD	63	96	2	48
TAP	63	96	5
TAP	63	144	4
TAP	63	192	2
HLD	63	192	3	48
TAP	63	288	1
HLD	63	288	4	48
TAP	63	336	2
TAP	64	0	3
HLD	64	0	5	48
HLD	64	96	3	48
TAP	64	96	5
HLD	64	192	2	48
TAP	64	192	6
TAP	64	240	7
HLD	64	288	1	48
TAP	64	288	6
TAP	64	336	5
BRK	65	0	0
BRK	65	0	4
TAP	66	0	2
TAP	66	0	5
TAP	66	96	2
TAP	66	96	5
TAP	66	192	3
TAP	66	216	4
TAP	66	240	3
TAP	66	264	4
TAP	66	288	3
TAP	66	336	2
TAP	66	336	5
TAP	67	0	1
TAP	67	0	6
STR	67	48	2
SCR	67	48	2	96	48	5
TAP	67	96	1
TAP	67	144	2
STR	67	192	1
SI_	67	192	1	96	48	5
TAP	67	240	2
TAP	67	288	1
STR	67	336	0
SCL	67	336	0	96	48	5
TAP	68	0	2
TAP	68	48	0
STR	68	96	1
SI_	68	96	1	96	48	5
TAP	68	144	0
TAP	68	192	1
STR	68	240	2
SCR	68	240	2	96	48	5
TAP	68	288	1
TAP	68	336	2
STR	69	0	1
SI_	69	0	1	96	48	5
TAP	69	48	2
TAP	69	96	1
STR	69	144	0
SCL	69	144	0	96	48	5
TAP	69	192	2
TAP	69	240	0
STR	69	288	1
SI_	69	288	1	96	48	5
TAP	69	336	0
TAP	70	0	1
TAP	70	96	6
STR	70	96	7
SF_	70	96	7	96	48	3
BRK	70	192	7
STR	71	0	7
SI_	71	0	7	96	48	3
STR	71	48	0
SI_	71	48	0	96	48	2
TAP	71	96	7
TAP	71	144	0
STR	71	192	4
SI_	71	192	4	96	48	6
STR	71	240	3
SI_	71	240	3	96	48	7
TAP	71	288	4
TAP	71	336	3
STR	72	0	5
SI_	72	0	5	96	48	1
STR	72	48	6
SI_	72	48	6	96	48	0
TAP	72	96	5
TAP	72	144	6
STR	72	192	2
SI_	72	192	2	96	48	4
STR	72	240	1
SI_	72	240	1	96	48	5
TAP	72	288	2
TAP	72	336	1
STR	73	0	6
SI_	73	0	6	96	48	3
STR	73	48	1
SI_	73	48	1	96	48	4
TAP	73	96	6
TAP	73	144	1
STR	73	192	7
SI_	73	192	7	96	48	3
STR	73	240	0
SI_	73	240	0	96	48	4
TAP	73	288	7
TAP	73	336	0
BRK	74	0	7
TAP	74	192	3
TAP	74	192	4
TAP	74	288	2
TAP	74	288	5
TAP	75	0	1
TAP	75	0	6
STR	75	48	5
SCL	75	48	5	96	48	2
TAP	75	96	6
TAP	75	144	5
STR	75	192	6
SI_	75	192	6	96	48	2
TAP	75	240	5
TAP	75	288	6
STR	75	336	7
SCR	75	336	7	96	48	2
TAP	76	0	5
TAP	76	48	7
STR	76	96	6
SI_	76	96	6	96	48	2
TAP	76	144	7
TAP	76	192	6
STR	76	240	5
SCL	76	240	5	96	48	2
TAP	76	288	6
TAP	76	336	5
STR	77	0	6
SI_	77	0	6	96	48	2
TAP	77	48	5
TAP	77	96	6
STR	77	144	7
SCR	77	144	7	96	48	2
TAP	77	192	5
TAP	77	240	7
STR	77	288	6
SI_	77	288	6	96	48	2
TAP	77	336	7
TAP	78	0	6
STR	78	96	0
SF_	78	96	0	96	48	4
TAP	78	96	1
BRK	78	192	0
STR	79	0	0
SI_	79	0	0	96	48	4
STR	79	48	7
SI_	79	48	7	96	48	5
TAP	79	96	0
TAP	79	144	7
STR	79	192	3
SI_	79	192	3	96	48	1
STR	79	240	4
SI_	79	240	4	96	48	0
TAP	79	288	3
TAP	79	336	4
STR	80	0	2
SI_	80	0	2	96	48	6
STR	80	48	1
SI_	80	48	1	96	48	7
TAP	80	96	2
TAP	80	144	1
STR	80	192	5
SI_	80	192	5	96	48	3
STR	80	240	6
SI_	80	240	6	96	48	2
TAP	80	288	5
TAP	80	336	6
STR	81	0	1
SI_	81	0	1	96	48	4
STR	81	48	6
SI_	81	48	6	96	72	3
TAP	81	96	1
TAP	81	144	6
STR	81	192	0
SI_	81	192	0	96	48	3
STR	81	240	7
SI_	81	240	7	96	48	4
TAP	81	288	0
TAP	81	336	7
STR	82	0	0
SI_	82	0	0	96	48	4
STR	82	48	7
SI_	82	48	7	96	48	3
STR	82	96	0
SI_	82	96	0	96	48	2
STR	82	144	7
SI_	82	144	7	96	48	5
STR	82	192	0
SI_	82	192	0	96	48	4
TAP	82	240	7
TAP	82	288	0
TAP	82	336	7
TAP	83	0	0
TAP	83	24	7
TAP	83	48	0
TAP	83	72	7
TAP	83	96	0
TAP	83	120	7
TAP	83	144	0
TAP	83	168	7
TAP	83	192	0
TAP	83	216	7
TAP	83	240	0
TAP	83	264	7
TAP	83	288	0
TAP	83	312	7
TAP	83	336	0
TAP	83	360	7
TAP	84	0	1
TAP	84	12	2
TAP	84	24	3
TAP	84	36	4
TAP	84	48	5
TAP	84	60	6
TAP	84	72	7
TAP	84	84	0
TAP	84	96	1
TAP	84	108	2
TAP	84	120	3
TAP	84	132	4
TAP	84	144	5
TAP	84	156	6
TAP	84	168	7
TAP	84	180	0
BRK	84	192	1
BRK	84	192	5
STR	85	0	5
SI_	85	0	5	96	48	2
TAP	85	0	6
TAP	85	48	6
TAP	85	96	5
TAP	85	96	6
TAP	85	144	6
STR	85	192	5
SI_	85	192	5	96	48	2
TAP	85	192	6
TAP	85	240	6
TAP	85	288	5
TAP	85	288	6
TAP	85	336	6
STR	86	0	5
SI_	86	0	5	96	48	2
TAP	86	0	6
TAP	86	48	6
BST	86	96	5
SV_	86	96	5	96	48	0
TAP	86	96	6
TAP	86	144	6
BST	86	192	5
SI_	86	192	5	96	48	2
TAP	86	192	6
TAP	86	240	6
BRK	86	288	5
TAP	86	288	6
STR	87	0	7
SCR	87	0	7	96	48	2
TAP	87	48	7
STR	87	96	3
SI_	87	96	3	96	48	6
TAP	87	192	3
STR	87	192	7
SCR	87	192	7	96	48	2
TAP	87	240	7
STR	87	288	3
SI_	87	288	3	96	48	6
TAP	88	0	3
STR	88	0	7
SI_	88	0	7	96	48	3
BST	88	96	7
SF_	88	96	7	96	48	3
BRK	88	192	7
TAP	89	0	1
STR	89	0	2
SI_	89	0	2	96	48	5
TAP	89	48	1
TAP	89	96	1
TAP	89	96	2
TAP	89	144	1
TAP	89	192	1
STR	89	192	2
SI_	89	192	2	96	48	5
TAP	89	240	1
TAP	89	288	1
TAP	89	288	2
TAP	89	336	1
TAP	90	0	1
STR	90	0	2
SI_	90	0	2	96	48	5
TAP	90	48	1
TAP	90	96	1
BST	90	96	2
SV_	90	96	2	96	48	7
TAP	90	144	1
TAP	90	192	1
BST	90	192	2
SI_	90	192	2	96	48	5
TAP	90	240	1
TAP	90	288	1
BRK	90	288	2
STR	91	0	0
SCL	91	0	0	96	48	5
TAP	91	48	0
STR	91	96	4
SI_	91	96	4	96	48	1
STR	91	192	0
SCL	91	192	0	96	48	5
TAP	91	192	4
TAP	91	240	0
STR	91	288	4
SI_	91	288	4	96	48	1
TAP	92	0	0
TAP	92	0	4
TAP	92	192	2
TAP	92	192	5
TAP	92	288	2
TAP	92	288	5
STR	93	0	3
SI_	93	0	3	96	48	7
STR	93	0	4
SI_	93	0	4	96	48	0
TAP	93	48	2
TAP	93	48	5
TAP	93	96	3
TAP	93	96	4
TAP	93	192	1
TAP	93	224	0
TAP	93	256	1
TAP	93	288	6
TAP	93	320	7
TAP	93	352	6
TAP	94	0	1
TAP	94	24	2
TAP	94	48	3
TAP	94	72	4
TAP	94	96	7
TAP	94	128	7
TAP	94	160	7
TAP	94	192	6
TAP	94	216	5
TAP	94	240	4
TAP	94	264	3
TAP	94	288	0
TAP	94	320	0
TAP	94	352	0
HLD	95	0	1	48
HLD	95	0	6	48
HLD	95	72	2	48
HLD	95	72	5	48
TAP	95	144	1
TAP	95	144	6
TAP	95	192	0
TAP	95	192	4
TAP	95	224	1
TAP	95	256	2
TAP	95	288	3
TAP	95	288	7
TAP	95	320	6
TAP	95	352	5
TAP	96	0	3
TAP	96	0	4
TAP	96	64	2
TAP	96	64	5
TAP	96	128	1
TAP	96	128	6
STR	96	192	0
SI_	96	192	0	96	48	3
STR	96	192	7
SI_	96	192	7	96	48	4
TAP	96	288	0
TAP	96	288	7
TAP	97	0	2
TAP	97	0	5
TAP	97	160	0
TAP	97	192	2
TAP	97	224	1
TAP	97	256	7
TAP	97	288	5
TAP	97	320	6
BRK	97	352	0

T_REC_TAP	502
T_REC_BRK	11
T_REC_XTP	0
T_REC_HLD	99
T_REC_XHO	0
T_REC_STR	151
T_REC_BST	5
T_REC_XST	0
T_REC_TTP	0
T_REC_THO	0
T_REC_SLD	156
T_REC_ALL	924
T_NUM_TAP	653
T_NUM_BRK	16
T_NUM_HLD	99
T_NUM_SLD	156
T_NUM_ALL	924
T_JUDGE_TAP	669
T_JUDGE_HLD	162
T_JUDGE_SLD	156
T_JUDGE_ALL	987
TTM_EACHPAIRS	195
TTM_SCR_TAP	326500
TTM_SCR_BRK	41600
TTM_SCR_HLD	99000
TTM_SCR_SLD	234000
TTM_SCR_ALL	701100
TTM_SCR_S	678550
TTM_SCR_SS	699500
TTM_RAT_ACV	10022

